<?xml version="1.0" standalone="no"?>
<!DOCTYPE svg PUBLIC "-//W3C//DTD SVG 1.1//EN" "http://www.w3.org/Graphics/SVG/1.1/DTD/svg11.dtd" >
<svg xmlns="http://www.w3.org/2000/svg" xmlns:xlink="http://www.w3.org/1999/xlink" version="1.1">
<metadata>
Created by FontForge 20170924 at Sun Apr 16 17:33:43 2017
 By www-data
Copyright \(c\) 2017 by Hot Action Records. All Rights Reserved.
</metadata>
<defs>
<font id="ArzteSans-Bold" horiz-adv-x="1024" >
  <font-face 
    font-family="A:rzte Sans Roman"
    font-weight="700"
    font-stretch="normal"
    units-per-em="2048"
    panose-1="2 11 8 3 3 6 4 2 2 4"
    ascent="1556"
    descent="-492"
    x-height="1120"
    cap-height="1493"
    bbox="-408 -492 2902 1901"
    underline-thickness="258"
    underline-position="-356"
    unicode-range="U+000D-FB02"
  />
<missing-glyph 
d="M840 1556v-2048h-650v2048h650zM682 1419h-338v-68h133v-76h-135v-67h340v67h-135v76h135v68zM547 1155h-205v-213h340v69h-135v144zM477 1085v-74h-67v74h67zM682 886h-340v-67h135v-76h-135v-68h205v144h135v67zM682 763h-68v-135h-272v-69h340v204zM682 514h-205v-115
h70v47h67v-96h-204v164h-68v-232h340v232zM682 159h-340v-231h340v231zM614 92v-97h-204v97h204zM682 -119h-340v-68h143l-143 -96v-68h340v68h-209l143 96h66v68z" />
    <glyph glyph-name=".notdef" 
d="M840 1556v-2048h-650v2048h650zM682 1419h-338v-68h133v-76h-135v-67h340v67h-135v76h135v68zM547 1155h-205v-213h340v69h-135v144zM477 1085v-74h-67v74h67zM682 886h-340v-67h135v-76h-135v-68h205v144h135v67zM682 763h-68v-135h-272v-69h340v204zM682 514h-205v-115
h70v47h67v-96h-204v164h-68v-232h340v232zM682 159h-340v-231h340v231zM614 92v-97h-204v97h204zM682 -119h-340v-68h143l-143 -96v-68h340v68h-209l143 96h66v68z" />
    <glyph glyph-name="A" unicode="A" horiz-adv-x="1585" 
d="M1188 0l-94 272h-602l-95 -272h-387l553 1493h459l553 -1493h-387zM793 1143l-205 -594h409z" />
    <glyph glyph-name="Aacute" unicode="&#xc1;" horiz-adv-x="1585" 
d="M621 1635l198 264h283l-285 -264h-196zM1188 0l-94 272h-602l-95 -272h-387l553 1493h459l553 -1493h-387zM793 1143l-205 -594h409z" />
    <glyph glyph-name="Acircumflex" unicode="&#xc2;" horiz-adv-x="1585" 
d="M391 1635l223 264h308l223 -264h-178l-199 161l-199 -161h-178zM1188 0l-94 272h-602l-95 -272h-387l553 1493h459l553 -1493h-387zM793 1143l-205 -594h409z" />
    <glyph glyph-name="Adieresis" unicode="&#xc4;" horiz-adv-x="1585" 
d="M315 1899h235v-246h-235v246zM671 1899h235v-246h-235v246zM1010 1899h233v-246h-233v246zM1188 0l-94 272h-602l-95 -272h-387l553 1493h459l553 -1493h-387zM793 1143l-205 -594h409z" />
    <glyph glyph-name="Agrave" unicode="&#xc0;" horiz-adv-x="1585" 
d="M434 1899h283l198 -264h-196zM1188 0l-94 272h-602l-95 -272h-387l553 1493h459l553 -1493h-387zM793 1143l-205 -594h409z" />
    <glyph glyph-name="Aring" unicode="&#xc5;" horiz-adv-x="1585" 
d="M1032 1464l543 -1464h-387l-94 272h-602l-95 -272h-387l543 1464c-31 45 -45 95 -45 152c0 156 128 285 285 285c155 0 284 -129 284 -285c0 -63 -14 -113 -45 -152zM662 1616c0 -72 59 -131 131 -131s131 59 131 131s-60 131 -131 131c-72 0 -131 -59 -131 -131z
M793 1143l-205 -594h409z" />
    <glyph glyph-name="Atilde" unicode="&#xc3;" horiz-adv-x="1585" 
d="M770 1684l-56 35l-10 6c-30 17 -54 26 -73 26c-43 0 -72 -43 -72 -110v-6h-139c0 3 0 8 1 15s1 12 1 15c0 141 78 236 194 236c49 0 98 -17 150 -49l59 -39c28 -19 55 -29 76 -29c49 0 76 41 76 117h139c0 -4 0 -9 -1 -16s-1 -12 -1 -15c0 -141 -78 -235 -194 -235
c-51 0 -94 13 -150 49zM1188 0l-94 272h-602l-95 -272h-387l553 1493h459l553 -1493h-387zM793 1143l-205 -594h409z" />
    <glyph glyph-name="AE" unicode="&#xc6;" horiz-adv-x="2222" 
d="M0 0l625 1493h1425v-291h-653v-278h614v-291h-614v-342h676v-291h-1061v350h-494l-147 -350h-371zM1012 1237h-121l-256 -610h377v610z" />
    <glyph glyph-name="B" unicode="B" horiz-adv-x="1561" 
d="M1157 799c165 -48 260 -183 260 -371c0 -288 -193 -428 -590 -428h-639v1493h578c415 0 590 -119 590 -395c0 -145 -70 -250 -199 -299zM573 915h213c121 0 185 54 185 158c0 103 -64 158 -185 158h-213v-316zM573 262h226c155 0 233 65 233 197c0 129 -77 194 -233 194
h-226v-391z" />
    <glyph glyph-name="C" unicode="C" horiz-adv-x="1503" 
d="M1372 391v-309c-141 -73 -294 -111 -461 -111c-497 0 -809 298 -809 774c0 477 312 775 809 775c167 0 320 -38 461 -111v-309c-143 97 -277 141 -430 141c-275 0 -442 -187 -442 -496c0 -308 167 -495 442 -495c153 0 287 44 430 141z" />
    <glyph glyph-name="Cacute" unicode="&#x106;" horiz-adv-x="1503" 
d="M723 1635l198 264h283l-285 -264h-196zM1372 391v-309c-141 -73 -294 -111 -461 -111c-497 0 -809 298 -809 774c0 477 312 775 809 775c167 0 320 -38 461 -111v-309c-143 97 -277 141 -430 141c-275 0 -442 -187 -442 -496c0 -308 167 -495 442 -495
c153 0 287 44 430 141z" />
    <glyph glyph-name="Ccaron" unicode="&#x10c;" horiz-adv-x="1503" 
d="M1024 1635h-308l-223 264h178l199 -162l199 162h178zM1372 391v-309c-141 -73 -294 -111 -461 -111c-497 0 -809 298 -809 774c0 477 312 775 809 775c167 0 320 -38 461 -111v-309c-143 97 -277 141 -430 141c-275 0 -442 -187 -442 -496c0 -308 167 -495 442 -495
c153 0 287 44 430 141z" />
    <glyph glyph-name="Ccedilla" unicode="&#xc7;" horiz-adv-x="1503" 
d="M942 1241c-275 0 -442 -187 -442 -496c0 -308 167 -495 442 -495c153 0 287 44 430 141v-309c-117 -60 -242 -97 -376 -108c61 -71 90 -133 90 -189c0 -127 -81 -186 -250 -186c-64 0 -133 9 -202 26l-1 152c67 -21 122 -31 166 -31c77 0 123 33 123 86
c0 31 -22 76 -68 140c-464 22 -752 315 -752 773c0 477 312 775 809 775c167 0 320 -38 461 -111v-309c-143 97 -277 141 -430 141z" />
    <glyph glyph-name="D" unicode="D" horiz-adv-x="1700" 
d="M188 0v1493h406c453 0 633 -58 792 -213c140 -135 207 -309 207 -532c0 -225 -67 -400 -207 -535c-160 -155 -344 -213 -792 -213h-406zM711 1202h-138v-911h138c315 0 485 160 485 457c0 296 -169 454 -485 454z" />
    <glyph glyph-name="Eth" unicode="&#xd0;" horiz-adv-x="1716" 
d="M207 881v612h405c455 0 633 -58 793 -213c139 -135 207 -309 207 -532c0 -225 -68 -400 -207 -535c-161 -155 -345 -213 -793 -213h-405v621h-174v260h174zM729 1202h-137v-321h235v-260h-235v-330h137c315 0 485 160 485 457c0 296 -169 454 -485 454z" />
    <glyph glyph-name="Dcaron" unicode="&#x10e;" horiz-adv-x="1229" 
d="M1126 -362h-1024v1806h1024v-1806zM217 1329v-1577h795v1577h-795z" />
    <glyph glyph-name="E" unicode="E" horiz-adv-x="1399" 
d="M188 0v1493h1039v-291h-654v-278h615v-291h-615v-342h676v-291h-1061z" />
    <glyph glyph-name="Eacute" unicode="&#xc9;" horiz-adv-x="1399" 
d="M545 1635l198 264h283l-285 -264h-196zM188 0v1493h1039v-291h-654v-278h615v-291h-615v-342h676v-291h-1061z" />
    <glyph glyph-name="Ecircumflex" unicode="&#xca;" horiz-adv-x="1399" 
d="M315 1635l223 264h308l223 -264h-178l-199 161l-199 -161h-178zM188 0v1493h1039v-291h-654v-278h615v-291h-615v-342h676v-291h-1061z" />
    <glyph glyph-name="Edieresis" unicode="&#xcb;" horiz-adv-x="1399" 
d="M377 1653v246h235v-246h-235zM772 1653v246h235v-246h-235zM188 0v1493h1039v-291h-654v-278h615v-291h-615v-342h676v-291h-1061z" />
    <glyph glyph-name="Egrave" unicode="&#xc8;" horiz-adv-x="1399" 
d="M358 1899h283l198 -264h-196zM188 0v1493h1039v-291h-654v-278h615v-291h-615v-342h676v-291h-1061z" />
    <glyph glyph-name="F" unicode="F" horiz-adv-x="1399" 
d="M188 0v1493h1039v-291h-654v-278h615v-291h-615v-633h-385z" />
    <glyph glyph-name="G" unicode="G" horiz-adv-x="1681" 
d="M1530 829v-718c-192 -93 -399 -140 -619 -140c-497 0 -809 298 -809 774c0 481 315 775 830 775c199 0 382 -38 543 -111v-309c-167 95 -331 141 -496 141c-307 0 -479 -177 -479 -496c0 -316 166 -495 461 -495c80 0 149 10 204 31v290h-235v258h600z" />
    <glyph glyph-name="Gbreve" unicode="&#x11e;" horiz-adv-x="1681" 
d="M481 1899h143c28 -81 92 -121 193 -121s165 40 193 121h143c-21 -172 -139 -264 -336 -264s-315 92 -336 264zM1530 829v-718c-192 -93 -399 -140 -619 -140c-497 0 -809 298 -809 774c0 481 315 775 830 775c199 0 382 -38 543 -111v-309c-167 95 -331 141 -496 141
c-307 0 -479 -177 -479 -496c0 -316 166 -495 461 -495c80 0 149 10 204 31v290h-235v258h600z" />
    <glyph glyph-name="H" unicode="H" horiz-adv-x="1714" 
d="M188 0v1493h385v-569h568v569h385v-1493h-385v633h-568v-633h-385z" />
    <glyph glyph-name="I" unicode="I" horiz-adv-x="762" 
d="M188 0v1493h385v-1493h-385z" />
    <glyph glyph-name="Iacute" unicode="&#xcd;" horiz-adv-x="762" 
d="M209 1635l198 264h283l-285 -264h-196zM188 0v1493h385v-1493h-385z" />
    <glyph glyph-name="Icircumflex" unicode="&#xce;" horiz-adv-x="762" 
d="M-21 1635l223 264h308l223 -264h-178l-199 161l-199 -161h-178zM188 0v1493h385v-1493h-385z" />
    <glyph glyph-name="Idieresis" unicode="&#xcf;" horiz-adv-x="762" 
d="M41 1653v246h235v-246h-235zM436 1653v246h235v-246h-235zM188 0v1493h385v-1493h-385z" />
    <glyph glyph-name="Idotaccent" unicode="&#x130;" horiz-adv-x="762" 
d="M219 1653v246h274v-246h-274zM188 0v1493h385v-1493h-385z" />
    <glyph glyph-name="Igrave" unicode="&#xcc;" horiz-adv-x="762" 
d="M22 1899h283l198 -264h-196zM188 0v1493h385v-1493h-385z" />
    <glyph glyph-name="J" unicode="J" horiz-adv-x="762" 
d="M188 145v1348h385v-1348c0 -372 -201 -555 -610 -555h-78v291h60c160 0 243 91 243 264z" />
    <glyph glyph-name="K" unicode="K" horiz-adv-x="1587" 
d="M188 0v1493h385v-545l555 545h447l-719 -707l793 -786h-482l-594 588v-588h-385z" />
    <glyph glyph-name="L" unicode="L" horiz-adv-x="1305" 
d="M188 0v1493h385v-1202h676v-291h-1061z" />
    <glyph glyph-name="Lslash" unicode="&#x141;" horiz-adv-x="1315" 
d="M199 805v688h385v-416l254 185l143 -193l-397 -272v-506h676v-291h-1061v524l-148 -106l-143 190z" />
    <glyph glyph-name="M" unicode="M" horiz-adv-x="2038" 
d="M188 0v1493h490l340 -799l342 799h489v-1493h-364v1092l-344 -805h-244l-344 805v-1092h-365z" />
    <glyph glyph-name="N" unicode="N" horiz-adv-x="1714" 
d="M188 0v1493h430l543 -1024v1024h365v-1493h-430l-543 1024v-1024h-365z" />
    <glyph glyph-name="Ntilde" unicode="&#xd1;" horiz-adv-x="1714" 
d="M823 1684l-56 35l-10 6c-30 17 -54 26 -73 26c-43 0 -72 -43 -72 -110v-6h-139c0 3 0 8 1 15s1 12 1 15c0 141 78 236 194 236c49 0 98 -17 150 -49l59 -39c28 -19 55 -29 76 -29c49 0 76 41 76 117h139c0 -4 0 -9 -1 -16s-1 -12 -1 -15c0 -141 -78 -235 -194 -235
c-51 0 -94 13 -150 49zM188 0v1493h430l543 -1024v1024h365v-1493h-430l-543 1024v-1024h-365z" />
    <glyph glyph-name="O" unicode="O" horiz-adv-x="1741" 
d="M870 1520c480 0 768 -291 768 -775c0 -483 -288 -774 -768 -774c-479 0 -768 291 -768 774c0 484 289 775 768 775zM870 1241c-235 0 -370 -181 -370 -496c0 -313 135 -495 370 -495c236 0 371 182 371 495c0 315 -135 496 -371 496z" />
    <glyph glyph-name="Oacute" unicode="&#xd3;" horiz-adv-x="1741" 
d="M699 1635l198 264h283l-285 -264h-196zM870 1520c480 0 768 -291 768 -775c0 -483 -288 -774 -768 -774c-479 0 -768 291 -768 774c0 484 289 775 768 775zM870 1241c-235 0 -370 -181 -370 -496c0 -313 135 -495 370 -495c236 0 371 182 371 495
c0 315 -135 496 -371 496z" />
    <glyph glyph-name="Ocircumflex" unicode="&#xd4;" horiz-adv-x="1741" 
d="M469 1635l223 264h308l223 -264h-178l-199 161l-199 -161h-178zM870 1520c480 0 768 -291 768 -775c0 -483 -288 -774 -768 -774c-479 0 -768 291 -768 774c0 484 289 775 768 775zM870 1241c-235 0 -370 -181 -370 -496c0 -313 135 -495 370 -495c236 0 371 182 371 495
c0 315 -135 496 -371 496z" />
    <glyph glyph-name="Odieresis" unicode="&#xd6;" horiz-adv-x="1741" 
d="M531 1653v246h235v-246h-235zM926 1653v246h235v-246h-235zM870 1520c480 0 768 -291 768 -775c0 -483 -288 -774 -768 -774c-479 0 -768 291 -768 774c0 484 289 775 768 775zM870 1241c-235 0 -370 -181 -370 -496c0 -313 135 -495 370 -495c236 0 371 182 371 495
c0 315 -135 496 -371 496z" />
    <glyph glyph-name="Ograve" unicode="&#xd2;" horiz-adv-x="1741" 
d="M512 1899h283l198 -264h-196zM870 1520c480 0 768 -291 768 -775c0 -483 -288 -774 -768 -774c-479 0 -768 291 -768 774c0 484 289 775 768 775zM870 1241c-235 0 -370 -181 -370 -496c0 -313 135 -495 370 -495c236 0 371 182 371 495c0 315 -135 496 -371 496z" />
    <glyph glyph-name="Oslash" unicode="&#xd8;" horiz-adv-x="1741" 
d="M45 39l205 205c-99 133 -148 300 -148 501c0 484 289 775 768 775c205 0 368 -49 504 -152l199 199l113 -115l-201 -199c103 -132 153 -303 153 -508c0 -483 -288 -774 -768 -774c-204 0 -374 53 -510 158l-202 -203zM528 522l605 604c-68 77 -154 115 -263 115
c-235 0 -370 -181 -370 -496c0 -85 9 -162 28 -223zM1210 979l-606 -608c69 -83 155 -121 266 -121c236 0 371 182 371 495c0 91 -10 169 -31 234z" />
    <glyph glyph-name="Otilde" unicode="&#xd5;" horiz-adv-x="1741" 
d="M848 1684l-56 35l-10 6c-30 17 -54 26 -73 26c-43 0 -72 -43 -72 -110v-6h-139c0 3 0 8 1 15s1 12 1 15c0 141 78 236 194 236c49 0 98 -17 150 -49l59 -39c28 -19 55 -29 76 -29c49 0 76 41 76 117h139c0 -4 0 -9 -1 -16s-1 -12 -1 -15c0 -141 -78 -235 -194 -235
c-51 0 -94 13 -150 49zM870 1520c480 0 768 -291 768 -775c0 -483 -288 -774 -768 -774c-479 0 -768 291 -768 774c0 484 289 775 768 775zM870 1241c-235 0 -370 -181 -370 -496c0 -313 135 -495 370 -495c236 0 371 182 371 495c0 315 -135 496 -371 496z" />
    <glyph glyph-name="OE" unicode="&#x152;" horiz-adv-x="2390" 
d="M1090 1493h1128v-291h-653v-278h614v-291h-614v-342h676v-291h-1151c-9 0 -21 0 -36 -1c-16 -1 -28 -1 -36 -1c-589 0 -916 269 -916 750c0 480 327 747 916 747c7 0 19 0 35 -1s28 -1 37 -1zM1180 291v911h-105c-385 0 -575 -150 -575 -454c0 -305 191 -457 575 -457
h105z" />
    <glyph glyph-name="P" unicode="P" horiz-adv-x="1501" 
d="M188 0v1493h639c380 0 590 -175 590 -487c0 -313 -210 -488 -590 -488h-254v-518h-385zM786 1214h-213v-417h213c149 0 234 76 234 209s-85 208 -234 208z" />
    <glyph glyph-name="Thorn" unicode="&#xde;" horiz-adv-x="1511" 
d="M827 258h-254v-258h-385v1493h385v-260h254c380 0 590 -175 590 -488c0 -312 -210 -487 -590 -487zM786 956h-213v-419h213c149 0 234 76 234 208c0 135 -85 211 -234 211z" />
    <glyph glyph-name="Q" unicode="Q" horiz-adv-x="1741" 
d="M1155 -299l-244 272h-30c-492 0 -779 287 -779 772c0 484 289 775 768 775c484 0 768 -286 768 -775c0 -336 -148 -585 -417 -708l301 -336h-367zM870 1241c-235 0 -370 -181 -370 -496c0 -320 130 -495 370 -495c236 0 371 182 371 495c0 315 -135 496 -371 496z" />
    <glyph glyph-name="R" unicode="R" horiz-adv-x="1577" 
d="M682 565h-109v-565h-385v1493h588c393 0 570 -127 570 -412c0 -197 -95 -323 -287 -383c105 -24 183 -102 268 -274l209 -424h-410l-182 371c-73 149 -137 194 -262 194zM573 831h162c161 0 226 56 226 193c0 136 -65 190 -226 190h-162v-383z" />
    <glyph glyph-name="S" unicode="S" horiz-adv-x="1475" 
d="M1227 1446v-316c-164 73 -322 111 -461 111c-184 0 -270 -49 -270 -156c0 -80 50 -119 206 -151l164 -33c332 -67 459 -191 459 -442c0 -329 -193 -488 -594 -488c-189 0 -380 36 -571 107v325c191 -101 369 -153 534 -153c168 0 260 58 260 162c0 93 -46 136 -227 176
l-149 33c-299 64 -431 199 -431 436c0 297 198 463 558 463c164 0 337 -25 522 -74z" />
    <glyph glyph-name="Scaron" unicode="&#x160;" horiz-adv-x="1475" 
d="M867 1635h-308l-223 264h178l199 -162l199 162h178zM1227 1446v-316c-164 73 -322 111 -461 111c-184 0 -270 -49 -270 -156c0 -80 50 -119 206 -151l164 -33c332 -67 459 -191 459 -442c0 -329 -193 -488 -594 -488c-189 0 -380 36 -571 107v325
c191 -101 369 -153 534 -153c168 0 260 58 260 162c0 93 -46 136 -227 176l-149 33c-299 64 -431 199 -431 436c0 297 198 463 558 463c164 0 337 -25 522 -74z" />
    <glyph glyph-name="Scedilla" unicode="&#x15e;" horiz-adv-x="1475" 
d="M1325 459c0 -296 -156 -455 -480 -483c62 -73 91 -134 91 -191c0 -127 -81 -186 -250 -186c-64 0 -133 9 -202 26l-1 152c67 -21 122 -31 166 -31c77 0 123 33 123 86c0 31 -21 75 -67 139c-180 3 -363 39 -545 107v325c191 -101 369 -153 534 -153c168 0 260 58 260 162
c0 93 -46 136 -227 176l-149 33c-299 64 -431 199 -431 436c0 297 198 463 558 463c164 0 337 -25 522 -74v-316c-164 73 -322 111 -461 111c-184 0 -270 -49 -270 -156c0 -80 50 -119 206 -151l164 -33c332 -67 459 -191 459 -442z" />
    <glyph glyph-name="T" unicode="T" horiz-adv-x="1397" 
d="M10 1202v291h1376v-291h-495v-1202h-385v1202h-496z" />
    <glyph glyph-name="U" unicode="U" horiz-adv-x="1663" 
d="M188 598v895h385v-895c0 -247 75 -344 258 -344c184 0 259 97 259 344v895h385v-895c0 -423 -209 -627 -644 -627c-433 0 -643 204 -643 627z" />
    <glyph glyph-name="Uacute" unicode="&#xda;" horiz-adv-x="1663" 
d="M660 1635l198 264h283l-285 -264h-196zM188 598v895h385v-895c0 -247 75 -344 258 -344c184 0 259 97 259 344v895h385v-895c0 -423 -209 -627 -644 -627c-433 0 -643 204 -643 627z" />
    <glyph glyph-name="Ucircumflex" unicode="&#xdb;" horiz-adv-x="1663" 
d="M430 1635l223 264h308l223 -264h-178l-199 161l-199 -161h-178zM188 598v895h385v-895c0 -247 75 -344 258 -344c184 0 259 97 259 344v895h385v-895c0 -423 -209 -627 -644 -627c-433 0 -643 204 -643 627z" />
    <glyph glyph-name="Udieresis" unicode="&#xdc;" horiz-adv-x="1663" 
d="M492 1653v246h235v-246h-235zM887 1653v246h235v-246h-235zM188 598v895h385v-895c0 -247 75 -344 258 -344c184 0 259 97 259 344v895h385v-895c0 -423 -209 -627 -644 -627c-433 0 -643 204 -643 627z" />
    <glyph glyph-name="Ugrave" unicode="&#xd9;" horiz-adv-x="1663" 
d="M473 1899h283l198 -264h-196zM188 598v895h385v-895c0 -247 75 -344 258 -344c184 0 259 97 259 344v895h385v-895c0 -423 -209 -627 -644 -627c-433 0 -643 204 -643 627z" />
    <glyph glyph-name="V" unicode="V" horiz-adv-x="1585" 
d="M563 0l-553 1493h387l396 -1102l395 1102h387l-553 -1493h-459z" />
    <glyph glyph-name="W" unicode="W" horiz-adv-x="2259" 
d="M416 0l-355 1493h369l258 -1085l256 1085h371l256 -1085l258 1085h366l-352 -1493h-444l-271 1135l-268 -1135h-444z" />
    <glyph glyph-name="X" unicode="X" horiz-adv-x="1579" 
d="M1518 1493l-498 -731l518 -762h-401l-349 510l-346 -510h-403l518 762l-498 731h402l327 -481l326 481h404z" />
    <glyph glyph-name="Y" unicode="Y" horiz-adv-x="1483" 
d="M549 629l-569 864h421l340 -532l340 532h422l-569 -864v-629h-385v629z" />
    <glyph glyph-name="Yacute" unicode="&#xdd;" horiz-adv-x="1483" 
d="M570 1635l198 264h283l-285 -264h-196zM549 629l-569 864h421l340 -532l340 532h422l-569 -864v-629h-385v629z" />
    <glyph glyph-name="Ydieresis" unicode="&#x178;" horiz-adv-x="1483" 
d="M402 1653v246h235v-246h-235zM797 1653v246h235v-246h-235zM549 629l-569 864h421l340 -532l340 532h422l-569 -864v-629h-385v629z" />
    <glyph glyph-name="Z" unicode="Z" horiz-adv-x="1485" 
d="M115 1202v291h1255v-233l-801 -969h824v-291h-1301v233l801 969h-778z" />
    <glyph glyph-name="Zcaron" unicode="&#x17d;" horiz-adv-x="1485" 
d="M873 1635h-308l-223 264h178l199 -162l199 162h178zM115 1202v291h1255v-233l-801 -969h824v-291h-1301v233l801 969h-778z" />
    <glyph glyph-name="a" unicode="a" horiz-adv-x="1382" 
d="M1221 639v-639h-361v166c-96 -136 -209 -195 -381 -195c-232 0 -391 149 -391 365c0 263 174 381 561 381h211v28c0 113 -87 164 -276 164c-153 0 -285 -31 -398 -92v273c153 37 308 57 463 57c404 0 572 -149 572 -508zM860 504h-186c-149 0 -225 -51 -225 -150
c0 -91 64 -145 172 -145c135 0 239 109 239 254v41z" />
    <glyph glyph-name="aacute" unicode="&#xe1;" horiz-adv-x="1382" 
d="M551 1262l282 376h283l-369 -376h-196zM1221 639v-639h-361v166c-96 -136 -209 -195 -381 -195c-232 0 -391 149 -391 365c0 263 174 381 561 381h211v28c0 113 -87 164 -276 164c-153 0 -285 -31 -398 -92v273c153 37 308 57 463 57c404 0 572 -149 572 -508zM860 504
h-186c-149 0 -225 -51 -225 -150c0 -91 64 -145 172 -145c135 0 239 109 239 254v41z" />
    <glyph glyph-name="acircumflex" unicode="&#xe2;" horiz-adv-x="1382" 
d="M321 1262l256 376h242l256 -376h-178l-199 225l-199 -225h-178zM1221 639v-639h-361v166c-96 -136 -209 -195 -381 -195c-232 0 -391 149 -391 365c0 263 174 381 561 381h211v28c0 113 -87 164 -276 164c-153 0 -285 -31 -398 -92v273c153 37 308 57 463 57
c404 0 572 -149 572 -508zM860 504h-186c-149 0 -225 -51 -225 -150c0 -91 64 -145 172 -145c135 0 239 109 239 254v41z" />
    <glyph glyph-name="adieresis" unicode="&#xe4;" horiz-adv-x="1382" 
d="M238 1585h235v-246h-235v246zM581 1585h235v-246h-235v246zM926 1585h235v-246h-235v246zM1221 639v-639h-361v166c-96 -136 -209 -195 -381 -195c-232 0 -391 149 -391 365c0 263 174 381 561 381h211v28c0 113 -87 164 -276 164c-153 0 -285 -31 -398 -92v273
c153 37 308 57 463 57c404 0 572 -149 572 -508zM860 504h-186c-149 0 -225 -51 -225 -150c0 -91 64 -145 172 -145c135 0 239 109 239 254v41z" />
    <glyph glyph-name="agrave" unicode="&#xe0;" horiz-adv-x="1382" 
d="M280 1638h283l282 -376h-196zM1221 639v-639h-361v166c-96 -136 -209 -195 -381 -195c-232 0 -391 149 -391 365c0 263 174 381 561 381h211v28c0 113 -87 164 -276 164c-153 0 -285 -31 -398 -92v273c153 37 308 57 463 57c404 0 572 -149 572 -508zM860 504h-186
c-149 0 -225 -51 -225 -150c0 -91 64 -145 172 -145c135 0 239 109 239 254v41z" />
    <glyph glyph-name="aring" unicode="&#xe5;" horiz-adv-x="1382" 
d="M413 1534c0 157 128 285 285 285s285 -128 285 -285s-128 -285 -285 -285s-285 128 -285 285zM567 1534c0 -73 59 -131 131 -131c73 0 131 59 131 131s-59 131 -131 131c-73 0 -131 -59 -131 -131zM1221 639v-639h-361v166c-96 -136 -209 -195 -381 -195
c-232 0 -391 149 -391 365c0 263 174 381 561 381h211v28c0 113 -87 164 -276 164c-153 0 -285 -31 -398 -92v273c153 37 308 57 463 57c404 0 572 -149 572 -508zM860 504h-186c-149 0 -225 -51 -225 -150c0 -91 64 -145 172 -145c135 0 239 109 239 254v41z" />
    <glyph glyph-name="atilde" unicode="&#xe3;" horiz-adv-x="1382" 
d="M700 1364l-55 37c-3 1 -6 3 -10 6c-31 21 -55 31 -72 31c-48 0 -74 -42 -74 -121v-8h-139c0 181 72 284 196 284c48 0 95 -17 150 -57l61 -43c29 -20 54 -31 74 -31c48 0 76 45 76 121v8h139c0 -181 -72 -284 -196 -284c-48 0 -87 13 -150 57zM1221 639v-639h-361v166
c-96 -136 -209 -195 -381 -195c-232 0 -391 149 -391 365c0 263 174 381 561 381h211v28c0 113 -87 164 -276 164c-153 0 -285 -31 -398 -92v273c153 37 308 57 463 57c404 0 572 -149 572 -508zM860 504h-186c-149 0 -225 -51 -225 -150c0 -91 64 -145 172 -145
c135 0 239 109 239 254v41z" />
    <glyph glyph-name="ae" unicode="&#xe6;" horiz-adv-x="2146" 
d="M186 817v273c159 37 310 57 439 57c200 0 343 -51 438 -156c103 103 240 156 403 156c353 0 582 -229 582 -584v-102h-838c19 -168 122 -252 310 -252c151 0 308 44 475 135v-276c-169 -64 -340 -97 -508 -97c-239 0 -420 74 -516 207c-135 -143 -278 -207 -463 -207
c-259 0 -420 141 -420 365c0 263 174 381 561 381h211v28c0 113 -87 164 -276 164c-153 0 -285 -31 -398 -92zM1217 682h462c0 136 -87 227 -215 227c-137 0 -226 -80 -247 -227zM860 504h-186c-149 0 -225 -51 -225 -150c0 -91 64 -145 172 -145c135 0 239 109 239 254v41z
" />
    <glyph glyph-name="b" unicode="b" horiz-adv-x="1466" 
d="M530 1556v-600c99 131 215 191 371 191c276 0 473 -243 473 -588s-197 -588 -473 -588c-156 0 -272 60 -371 191v-162h-358v1556h358zM768 231c153 0 236 115 236 328s-83 328 -236 328s-238 -116 -238 -328s85 -328 238 -328z" />
    <glyph glyph-name="c" unicode="c" horiz-adv-x="1214" 
d="M1077 1085v-292c-97 67 -194 98 -299 98c-200 0 -317 -123 -317 -332s117 -332 317 -332c112 0 214 34 299 99v-293c-112 -41 -228 -62 -344 -62c-404 0 -645 219 -645 588s241 588 645 588c117 0 231 -21 344 -62z" />
    <glyph glyph-name="cacute" unicode="&#x107;" horiz-adv-x="1214" 
d="M576 1262l282 376h283l-369 -376h-196zM1077 1085v-292c-97 67 -194 98 -299 98c-200 0 -317 -123 -317 -332s117 -332 317 -332c112 0 214 34 299 99v-293c-112 -41 -228 -62 -344 -62c-404 0 -645 219 -645 588s241 588 645 588c117 0 231 -21 344 -62z" />
    <glyph glyph-name="ccaron" unicode="&#x10d;" horiz-adv-x="1214" 
d="M844 1262h-242l-256 376h178l199 -227l199 227h178zM1077 1085v-292c-97 67 -194 98 -299 98c-200 0 -317 -123 -317 -332s117 -332 317 -332c112 0 214 34 299 99v-293c-112 -41 -228 -62 -344 -62c-404 0 -645 219 -645 588s241 588 645 588c117 0 231 -21 344 -62z
" />
    <glyph glyph-name="ccedilla" unicode="&#xe7;" horiz-adv-x="1214" 
d="M778 891c-200 0 -317 -123 -317 -332s117 -332 317 -332c112 0 214 34 299 99v-293c-87 -32 -177 -52 -268 -59c61 -72 90 -133 90 -189c0 -127 -81 -186 -250 -186c-64 0 -133 9 -202 26l-1 152c67 -21 122 -31 166 -31c77 0 123 33 123 86c0 31 -22 76 -68 141
c-364 23 -579 238 -579 586c0 369 241 588 645 588c117 0 231 -21 344 -62v-292c-97 67 -194 98 -299 98z" />
    <glyph glyph-name="d" unicode="d" horiz-adv-x="1466" 
d="M934 956v600h360v-1556h-360v162c-99 -132 -213 -191 -369 -191c-276 0 -473 243 -473 588s197 588 473 588c155 0 270 -60 369 -191zM698 231c153 0 236 115 236 328s-83 328 -236 328c-152 0 -235 -115 -235 -328s83 -328 235 -328z" />
    <glyph glyph-name="eth" unicode="&#xf0;" horiz-adv-x="1407" 
d="M891 1329l205 -229c156 -181 223 -344 223 -541c0 -368 -229 -588 -614 -588c-387 0 -617 220 -617 588c0 308 213 496 565 496c61 0 112 -8 160 -27l-190 219l-373 -119l-37 129l307 97l-188 202h352l111 -116l376 114l35 -129zM920 743c-73 36 -146 54 -215 54
c-156 0 -244 -93 -244 -254c0 -197 92 -316 244 -316c156 0 241 117 241 332c0 60 -9 121 -26 184z" />
    <glyph glyph-name="dcroat" unicode="&#x111;" horiz-adv-x="1466" 
d="M934 956v281h-326v205h326v114h360v-114h154v-205h-154v-1237h-360v162c-99 -132 -213 -191 -369 -191c-276 0 -473 243 -473 588s197 588 473 588c155 0 270 -60 369 -191zM698 231c153 0 236 115 236 328s-83 328 -236 328c-152 0 -235 -115 -235 -328
s83 -328 235 -328z" />
    <glyph glyph-name="e" unicode="e" horiz-adv-x="1389" 
d="M1290 563v-102h-837c17 -168 122 -252 309 -252c151 0 308 44 475 135v-276c-169 -64 -339 -97 -508 -97c-405 0 -641 216 -641 588c0 365 234 588 621 588c352 0 581 -229 581 -584zM457 682h465c0 136 -87 227 -215 227c-139 0 -229 -80 -250 -227z" />
    <glyph glyph-name="eacute" unicode="&#xe9;" horiz-adv-x="1389" 
d="M582 1262l282 376h283l-369 -376h-196zM1290 563v-102h-837c17 -168 122 -252 309 -252c151 0 308 44 475 135v-276c-169 -64 -339 -97 -508 -97c-405 0 -641 216 -641 588c0 365 234 588 621 588c352 0 581 -229 581 -584zM457 682h465c0 136 -87 227 -215 227
c-139 0 -229 -80 -250 -227z" />
    <glyph glyph-name="ecircumflex" unicode="&#xea;" horiz-adv-x="1389" 
d="M352 1262l256 376h242l256 -376h-178l-199 225l-199 -225h-178zM1290 563v-102h-837c17 -168 122 -252 309 -252c151 0 308 44 475 135v-276c-169 -64 -339 -97 -508 -97c-405 0 -641 216 -641 588c0 365 234 588 621 588c352 0 581 -229 581 -584zM457 682h465
c0 136 -87 227 -215 227c-139 0 -229 -80 -250 -227z" />
    <glyph glyph-name="edieresis" unicode="&#xeb;" horiz-adv-x="1389" 
d="M414 1339v246h235v-246h-235zM809 1339v246h235v-246h-235zM1290 563v-102h-837c17 -168 122 -252 309 -252c151 0 308 44 475 135v-276c-169 -64 -339 -97 -508 -97c-405 0 -641 216 -641 588c0 365 234 588 621 588c352 0 581 -229 581 -584zM457 682h465
c0 136 -87 227 -215 227c-139 0 -229 -80 -250 -227z" />
    <glyph glyph-name="egrave" unicode="&#xe8;" horiz-adv-x="1389" 
d="M311 1638h283l282 -376h-196zM1290 563v-102h-837c17 -168 122 -252 309 -252c151 0 308 44 475 135v-276c-169 -64 -339 -97 -508 -97c-405 0 -641 216 -641 588c0 365 234 588 621 588c352 0 581 -229 581 -584zM457 682h465c0 136 -87 227 -215 227
c-139 0 -229 -80 -250 -227z" />
    <glyph glyph-name="f" unicode="f" horiz-adv-x="891" 
d="M635 1556h274v-235h-198c-101 0 -136 -32 -136 -123v-78h306v-256h-306v-864h-358v864h-178v256h178v78c0 244 133 358 418 358z" />
    <glyph glyph-name="g" unicode="g" horiz-adv-x="1466" 
d="M934 113v77c-99 -131 -213 -190 -369 -190c-273 0 -473 240 -473 573c0 335 200 572 473 572c156 0 270 -59 369 -191v166h360v-1007c0 -360 -233 -555 -665 -555c-140 0 -268 21 -400 65v279c125 -72 244 -107 365 -107c235 0 340 99 340 318zM698 887
c-148 0 -235 -114 -235 -314c0 -205 82 -313 235 -313c149 0 236 114 236 313c0 200 -87 314 -236 314z" />
    <glyph glyph-name="gbreve" unicode="&#x11f;" horiz-adv-x="1466" 
d="M397 1606h143c15 -93 82 -144 193 -144s178 51 193 144h143c-8 -192 -128 -297 -336 -297s-328 105 -336 297zM934 113v77c-99 -131 -213 -190 -369 -190c-273 0 -473 240 -473 573c0 335 200 572 473 572c156 0 270 -59 369 -191v166h360v-1007
c0 -360 -233 -555 -665 -555c-140 0 -268 21 -400 65v279c125 -72 244 -107 365 -107c235 0 340 99 340 318zM698 887c-148 0 -235 -114 -235 -314c0 -205 82 -313 235 -313c149 0 236 114 236 313c0 200 -87 314 -236 314z" />
    <glyph glyph-name="h" unicode="h" horiz-adv-x="1458" 
d="M1298 682v-682h-360v520c0 98 -2 165 -6 202c-9 73 -32 110 -80 136c-24 13 -51 19 -82 19c-149 0 -240 -122 -240 -326v-551h-358v1556h358v-600c108 131 226 191 373 191c259 0 395 -162 395 -465z" />
    <glyph glyph-name="i" unicode="i" horiz-adv-x="702" 
d="M172 1264v292h358v-292h-358zM172 0v1120h358v-1120h-358z" />
    <glyph glyph-name="dotlessi" unicode="&#x131;" horiz-adv-x="702" 
d="M172 0v1120h358v-1120h-358z" />
    <glyph glyph-name="iacute" unicode="&#xed;" horiz-adv-x="702" 
d="M228 1262l282 376h283l-369 -376h-196zM172 0v1120h358v-1120h-358z" />
    <glyph glyph-name="icircumflex" unicode="&#xee;" horiz-adv-x="702" 
d="M-2 1262l256 376h242l256 -376h-178l-199 225l-199 -225h-178zM172 0v1120h358v-1120h-358z" />
    <glyph glyph-name="idieresis" unicode="&#xef;" horiz-adv-x="702" 
d="M60 1339v246h235v-246h-235zM455 1339v246h235v-246h-235zM172 0v1120h358v-1120h-358z" />
    <glyph glyph-name="igrave" unicode="&#xec;" horiz-adv-x="702" 
d="M-43 1638h283l282 -376h-196zM172 0v1120h358v-1120h-358z" />
    <glyph glyph-name="j" unicode="j" horiz-adv-x="702" 
d="M172 1264v292h358v-292h-358zM172 20v1100h358v-1100c0 -300 -148 -462 -421 -462h-177v235h62c136 0 178 47 178 227z" />
    <glyph glyph-name="k" unicode="k" horiz-adv-x="1362" 
d="M172 0v1556h358v-847l412 411h416l-547 -514l590 -606h-434l-437 467v-467h-358z" />
    <glyph glyph-name="l" unicode="l" horiz-adv-x="702" 
d="M172 0v1556h358v-1556h-358z" />
    <glyph glyph-name="lslash" unicode="&#x142;" horiz-adv-x="760" 
d="M199 872v684h360v-501l129 88l111 -154l-240 -164v-825h-360v641l-125 -86l-111 154z" />
    <glyph glyph-name="m" unicode="m" horiz-adv-x="2134" 
d="M1210 934c91 139 218 213 367 213c257 0 395 -162 395 -465v-682h-360v584c1 17 2 32 2 67c0 159 -44 226 -148 226c-136 0 -212 -115 -215 -327v-550h-360v584c0 124 -11 204 -32 240c-21 35 -59 53 -114 53c-137 0 -215 -117 -215 -326v-551h-360v1120h360v-164
c88 127 203 191 340 191c155 0 279 -78 340 -213z" />
    <glyph glyph-name="n" unicode="n" horiz-adv-x="1458" 
d="M1298 682v-682h-360v522c0 97 -2 163 -6 200c-9 73 -32 110 -80 136c-24 13 -51 19 -82 19c-149 0 -240 -122 -240 -326v-551h-358v1120h358v-164c108 131 226 191 373 191c259 0 395 -162 395 -465z" />
    <glyph glyph-name="ntilde" unicode="&#xf1;" horiz-adv-x="1458" 
d="M756 1364l-55 37c-3 1 -6 3 -10 6c-31 21 -55 31 -72 31c-48 0 -74 -42 -74 -121v-8h-139c0 181 72 284 196 284c48 0 95 -17 150 -57l61 -43c29 -20 54 -31 74 -31c48 0 76 45 76 121v8h139c0 -181 -72 -284 -196 -284c-48 0 -87 13 -150 57zM1298 682v-682h-360v522
c0 97 -2 163 -6 200c-9 73 -32 110 -80 136c-24 13 -51 19 -82 19c-149 0 -240 -122 -240 -326v-551h-358v1120h358v-164c108 131 226 191 373 191c259 0 395 -162 395 -465z" />
    <glyph glyph-name="o" unicode="o" horiz-adv-x="1407" 
d="M705 1147c385 0 614 -220 614 -588s-229 -588 -614 -588c-387 0 -617 220 -617 588s230 588 617 588zM705 891c-159 0 -244 -117 -244 -332s85 -332 244 -332c156 0 241 117 241 332s-85 332 -241 332z" />
    <glyph glyph-name="oacute" unicode="&#xf3;" horiz-adv-x="1407" 
d="M580 1262l282 376h283l-369 -376h-196zM705 1147c385 0 614 -220 614 -588s-229 -588 -614 -588c-387 0 -617 220 -617 588s230 588 617 588zM705 891c-159 0 -244 -117 -244 -332s85 -332 244 -332c156 0 241 117 241 332s-85 332 -241 332z" />
    <glyph glyph-name="ocircumflex" unicode="&#xf4;" horiz-adv-x="1407" 
d="M350 1262l256 376h242l256 -376h-178l-199 225l-199 -225h-178zM705 1147c385 0 614 -220 614 -588s-229 -588 -614 -588c-387 0 -617 220 -617 588s230 588 617 588zM705 891c-159 0 -244 -117 -244 -332s85 -332 244 -332c156 0 241 117 241 332s-85 332 -241 332z" />
    <glyph glyph-name="odieresis" unicode="&#xf6;" horiz-adv-x="1407" 
d="M412 1339v246h235v-246h-235zM807 1339v246h235v-246h-235zM705 1147c385 0 614 -220 614 -588s-229 -588 -614 -588c-387 0 -617 220 -617 588s230 588 617 588zM705 891c-159 0 -244 -117 -244 -332s85 -332 244 -332c156 0 241 117 241 332s-85 332 -241 332z" />
    <glyph glyph-name="ograve" unicode="&#xf2;" horiz-adv-x="1407" 
d="M309 1638h283l282 -376h-196zM705 1147c385 0 614 -220 614 -588s-229 -588 -614 -588c-387 0 -617 220 -617 588s230 588 617 588zM705 891c-159 0 -244 -117 -244 -332s85 -332 244 -332c156 0 241 117 241 332s-85 332 -241 332z" />
    <glyph glyph-name="oslash" unicode="&#xf8;" horiz-adv-x="1407" 
d="M78 0l145 158c-89 104 -135 237 -135 401c0 368 230 588 617 588c141 0 260 -29 360 -88l147 158l109 -101l-141 -149c93 -107 139 -240 139 -408c0 -368 -229 -588 -614 -588c-144 0 -264 30 -367 90l-148 -155zM475 426l381 410c-39 37 -88 55 -151 55
c-159 0 -244 -117 -244 -332c0 -55 5 -97 14 -133zM932 698l-385 -411c41 -40 94 -60 158 -60c156 0 241 117 241 332c0 57 -5 100 -14 139z" />
    <glyph glyph-name="otilde" unicode="&#xf5;" horiz-adv-x="1407" 
d="M729 1364l-55 37c-3 1 -6 3 -10 6c-31 21 -55 31 -72 31c-48 0 -74 -42 -74 -121v-8h-139c0 181 72 284 196 284c48 0 95 -17 150 -57l61 -43c29 -20 54 -31 74 -31c48 0 76 45 76 121v8h139c0 -181 -72 -284 -196 -284c-48 0 -87 13 -150 57zM705 1147
c385 0 614 -220 614 -588s-229 -588 -614 -588c-387 0 -617 220 -617 588s230 588 617 588zM705 891c-159 0 -244 -117 -244 -332s85 -332 244 -332c156 0 241 117 241 332s-85 332 -241 332z" />
    <glyph glyph-name="oe" unicode="&#x153;" horiz-adv-x="2241" 
d="M2142 563v-102h-837c17 -168 122 -252 309 -252c151 0 308 44 475 135v-276c-168 -64 -340 -97 -508 -97c-220 0 -355 52 -451 168c-109 -112 -252 -168 -425 -168c-387 0 -617 220 -617 588s230 588 617 588c179 0 313 -53 421 -168c109 116 236 168 416 168
c371 0 600 -224 600 -584zM1309 682h465c0 136 -87 227 -215 227c-139 0 -229 -80 -250 -227zM705 891c-159 0 -244 -117 -244 -332s85 -332 244 -332c156 0 241 117 241 332s-85 332 -241 332z" />
    <glyph glyph-name="p" unicode="p" horiz-adv-x="1466" 
d="M530 162v-588h-358v1546h358v-164c99 131 215 191 371 191c276 0 473 -243 473 -588s-197 -588 -473 -588c-156 0 -272 60 -371 191zM768 887c-153 0 -238 -116 -238 -328s85 -328 238 -328s236 115 236 328s-83 328 -236 328z" />
    <glyph glyph-name="thorn" unicode="&#xfe;" horiz-adv-x="1466" 
d="M530 162v-588h-358v1982h358v-600c99 131 215 191 371 191c276 0 473 -243 473 -588s-197 -588 -473 -588c-156 0 -272 60 -371 191zM768 887c-153 0 -238 -116 -238 -328s85 -328 238 -328s236 115 236 328s-83 328 -236 328z" />
    <glyph glyph-name="q" unicode="q" horiz-adv-x="1466" 
d="M934 -426v588c-99 -132 -213 -191 -369 -191c-276 0 -473 243 -473 588s197 586 473 586c156 0 270 -59 369 -191v166h360v-1546h-360zM698 887c-152 0 -235 -115 -235 -328s83 -328 235 -328c153 0 236 115 236 328s-83 328 -236 328z" />
    <glyph glyph-name="r" unicode="r" horiz-adv-x="1010" 
d="M1003 1139l1 -324c-63 29 -124 43 -187 43c-184 0 -287 -122 -287 -342v-516h-358v1120h358v-184c92 147 206 211 373 211c24 0 47 -1 100 -8z" />
    <glyph glyph-name="s" unicode="s" horiz-adv-x="1219" 
d="M1047 1085v-272c-153 64 -297 96 -424 96c-136 0 -201 -33 -201 -104c0 -29 13 -51 38 -66s69 -27 134 -34l63 -9c367 -47 465 -138 465 -366c0 -239 -177 -359 -526 -359c-148 0 -306 23 -473 70v272c143 -69 293 -104 448 -104c140 0 211 39 211 115
c0 32 -12 56 -36 72c-25 15 -73 27 -146 36l-63 8c-319 40 -431 137 -431 357c0 237 160 350 496 350c132 0 274 -19 445 -62z" />
    <glyph glyph-name="scaron" unicode="&#x161;" horiz-adv-x="1219" 
d="M731 1262h-242l-256 376h178l199 -227l199 227h178zM1047 1085v-272c-153 64 -297 96 -424 96c-136 0 -201 -33 -201 -104c0 -29 13 -51 38 -66s69 -27 134 -34l63 -9c367 -47 465 -138 465 -366c0 -239 -177 -359 -526 -359c-148 0 -306 23 -473 70v272
c143 -69 293 -104 448 -104c140 0 211 39 211 115c0 32 -12 56 -36 72c-25 15 -73 27 -146 36l-63 8c-319 40 -431 137 -431 357c0 237 160 350 496 350c132 0 274 -19 445 -62z" />
    <glyph glyph-name="scedilla" unicode="&#x15f;" horiz-adv-x="1219" 
d="M1122 330c0 -209 -135 -327 -401 -353c62 -73 92 -135 92 -192c0 -127 -81 -186 -250 -186c-64 0 -133 9 -202 26l-1 152c67 -21 122 -31 166 -31c77 0 123 33 123 86c0 31 -21 75 -67 139c-144 1 -297 24 -459 70v272c143 -69 293 -104 448 -104c140 0 211 39 211 115
c0 32 -12 56 -36 72c-25 15 -73 27 -146 36l-63 8c-319 40 -431 137 -431 357c0 237 160 350 496 350c132 0 274 -19 445 -62v-272c-153 64 -297 96 -424 96c-136 0 -201 -33 -201 -104c0 -29 13 -51 38 -66s69 -27 134 -34l63 -9c367 -47 465 -138 465 -366z" />
    <glyph glyph-name="germandbls" unicode="&#xdf;" horiz-adv-x="1473" 
d="M172 0v1114c0 296 179 442 543 442c349 0 530 -151 530 -442v-71c-201 -13 -295 -63 -295 -162c0 -25 8 -46 25 -65c16 -19 55 -46 117 -81l69 -37c155 -85 223 -194 223 -350c0 -252 -152 -377 -460 -377c-87 0 -178 17 -277 49v244c75 -36 153 -55 225 -55
c96 0 160 53 160 129c0 31 -9 58 -27 81c-19 23 -61 52 -126 89l-70 39c-117 65 -172 154 -172 274c0 155 91 257 284 324c-1 113 -67 174 -188 174c-135 0 -203 -74 -203 -219v-1100h-358z" />
    <glyph glyph-name="t" unicode="t" horiz-adv-x="979" 
d="M205 1438h358v-318h369v-256h-369v-475c0 -104 31 -133 154 -133h184v-256h-307c-283 0 -389 106 -389 389v475h-178v256h178v318z" />
    <glyph glyph-name="u" unicode="u" horiz-adv-x="1458" 
d="M160 436v684h360v-112c0 -61 0 -137 -1 -228c-1 -92 -1 -153 -1 -184c0 -90 2 -155 7 -194c9 -80 34 -116 82 -141c23 -13 50 -19 81 -19c149 0 240 121 240 325v553h358v-1120h-358v162c-108 -131 -226 -191 -371 -191c-259 0 -397 162 -397 465z" />
    <glyph glyph-name="uacute" unicode="&#xfa;" horiz-adv-x="1458" 
d="M607 1262l282 376h283l-369 -376h-196zM160 436v684h360v-112c0 -61 0 -137 -1 -228c-1 -92 -1 -153 -1 -184c0 -90 2 -155 7 -194c9 -80 34 -116 82 -141c23 -13 50 -19 81 -19c149 0 240 121 240 325v553h358v-1120h-358v162c-108 -131 -226 -191 -371 -191
c-259 0 -397 162 -397 465z" />
    <glyph glyph-name="ucircumflex" unicode="&#xfb;" horiz-adv-x="1458" 
d="M377 1262l256 376h242l256 -376h-178l-199 225l-199 -225h-178zM160 436v684h360v-112c0 -61 0 -137 -1 -228c-1 -92 -1 -153 -1 -184c0 -90 2 -155 7 -194c9 -80 34 -116 82 -141c23 -13 50 -19 81 -19c149 0 240 121 240 325v553h358v-1120h-358v162
c-108 -131 -226 -191 -371 -191c-259 0 -397 162 -397 465z" />
    <glyph glyph-name="udieresis" unicode="&#xfc;" horiz-adv-x="1458" 
d="M439 1339v246h235v-246h-235zM834 1339v246h235v-246h-235zM160 436v684h360v-112c0 -61 0 -137 -1 -228c-1 -92 -1 -153 -1 -184c0 -90 2 -155 7 -194c9 -80 34 -116 82 -141c23 -13 50 -19 81 -19c149 0 240 121 240 325v553h358v-1120h-358v162
c-108 -131 -226 -191 -371 -191c-259 0 -397 162 -397 465z" />
    <glyph glyph-name="ugrave" unicode="&#xf9;" horiz-adv-x="1458" 
d="M336 1638h283l282 -376h-196zM160 436v684h360v-112c0 -61 0 -137 -1 -228c-1 -92 -1 -153 -1 -184c0 -90 2 -155 7 -194c9 -80 34 -116 82 -141c23 -13 50 -19 81 -19c149 0 240 121 240 325v553h358v-1120h-358v162c-108 -131 -226 -191 -371 -191
c-259 0 -397 162 -397 465z" />
    <glyph glyph-name="v" unicode="v" horiz-adv-x="1335" 
d="M471 0l-440 1120h358l279 -774l278 774h359l-441 -1120h-393z" />
    <glyph glyph-name="w" unicode="w" horiz-adv-x="1892" 
d="M367 0l-295 1120h348l188 -772l189 772h299l188 -764l189 764h348l-295 -1120h-391l-189 770l-188 -770h-391z" />
    <glyph glyph-name="x" unicode="x" horiz-adv-x="1321" 
d="M31 0l424 573l-404 547h379l229 -332l232 332h379l-404 -545l424 -575h-379l-252 354l-249 -354h-379z" />
    <glyph glyph-name="y" unicode="y" horiz-adv-x="1335" 
d="M524 -43l-499 1163h358l301 -760l256 760h358l-471 -1226c-95 -249 -208 -336 -415 -336h-207v235h112c121 0 166 33 197 133z" />
    <glyph glyph-name="yacute" unicode="&#xfd;" horiz-adv-x="1335" 
d="M521 1262l282 376h283l-369 -376h-196zM524 -43l-499 1163h358l301 -760l256 760h358l-471 -1226c-95 -249 -208 -336 -415 -336h-207v235h112c121 0 166 33 197 133z" />
    <glyph glyph-name="ydieresis" unicode="&#xff;" horiz-adv-x="1335" 
d="M353 1339v246h235v-246h-235zM748 1339v246h235v-246h-235zM524 -43l-499 1163h358l301 -760l256 760h358l-471 -1226c-95 -249 -208 -336 -415 -336h-207v235h112c121 0 166 33 197 133z" />
    <glyph glyph-name="z" unicode="z" horiz-adv-x="1192" 
d="M117 864v256h977v-250l-590 -614h590v-256h-1002v250l590 614h-565z" />
    <glyph glyph-name="zcaron" unicode="&#x17e;" horiz-adv-x="1192" 
d="M717 1262h-242l-256 376h178l199 -227l199 227h178zM117 864v256h977v-250l-590 -614h590v-256h-1002v250l590 614h-565z" />
    <glyph glyph-name="fi" unicode="&#xfb01;" horiz-adv-x="1518" 
d="M637 1556h274v-235h-198c-100 0 -133 -32 -133 -123v-78h766v-1120h-361v864h-405v-864h-361v864h-176v256h176v78c0 244 133 358 418 358zM985 1264v292h361v-292h-361z" />
    <glyph glyph-name="fl" unicode="&#xfb02;" horiz-adv-x="1518" 
d="M635 1556h711v-1556h-361v1321h-274c-101 0 -136 -32 -136 -123v-78h281v-256h-281v-864h-358v864h-178v256h178v78c0 244 133 358 418 358z" />
    <glyph glyph-name="ordfeminine" unicode="&#xaa;" horiz-adv-x="1155" 
d="M1001 1165v-448h-245v127c-73 -101 -164 -148 -289 -148c-193 0 -309 95 -309 250c0 188 135 273 436 273h137v20c0 75 -61 115 -174 115c-116 0 -227 -23 -332 -70v180c123 37 236 56 336 56c299 0 440 -115 440 -355zM733 1081h-90c-89 0 -150 -9 -185 -26
s-52 -47 -52 -88c0 -68 47 -109 124 -109c119 0 203 85 203 201v22zM176 373v200h813v-200h-813z" />
    <glyph glyph-name="ordmasculine" unicode="&#xba;" horiz-adv-x="1155" 
d="M578 1520c284 0 460 -159 460 -412s-175 -410 -460 -410s-461 157 -461 410s176 412 461 412zM578 1350c-112 0 -175 -87 -175 -242s63 -240 175 -240c111 0 174 85 174 240s-63 242 -174 242zM166 373v200h823v-200h-823z" />
    <glyph glyph-name="uni03A9" unicode="&#x3a9;" horiz-adv-x="1575" 
d="M1227 256h291v-256h-609v291c168 115 258 294 258 514c0 271 -144 436 -381 436c-236 0 -380 -165 -380 -436c0 -219 90 -401 258 -514v-291h-609v256h291c-168 161 -248 344 -248 563c0 417 272 690 688 690c417 0 689 -273 689 -690c0 -219 -80 -402 -248 -563z" />
    <glyph glyph-name="pi" unicode="&#x3c0;" horiz-adv-x="1319" 
d="M399 1092h955l-39 -224h-176l-154 -868h-287l152 868h-238l-151 -868h-287l152 868h-25c-73 0 -110 -39 -123 -130l-213 -1c39 265 145 355 434 355z" />
    <glyph glyph-name="zero" unicode="0" horiz-adv-x="1425" 
d="M1327 745c0 -495 -222 -774 -614 -774c-393 0 -615 279 -615 774c0 496 222 775 615 775c392 0 614 -279 614 -775zM942 748c0 187 -17 318 -52 395c-35 76 -94 114 -177 114s-142 -38 -177 -114c-35 -77 -53 -208 -53 -395c0 -189 18 -322 53 -399s94 -116 177 -116
c82 0 141 39 176 116s53 210 53 399z" />
    <glyph glyph-name="one" unicode="1" horiz-adv-x="1425" 
d="M240 0v266h340v965l-349 -72v262l347 72h366v-1227h340v-266h-1044z" />
    <glyph glyph-name="two" unicode="2" horiz-adv-x="1425" 
d="M909 563l-319 -280h657v-283h-1085v283l545 481c97 88 143 169 143 260c0 140 -102 233 -258 233c-120 0 -263 -52 -426 -153v328c173 57 343 88 506 88c357 0 565 -166 565 -447c0 -163 -59 -274 -328 -510z" />
    <glyph glyph-name="three" unicode="3" horiz-adv-x="1425" 
d="M954 805c201 -52 308 -182 308 -381c0 -296 -231 -453 -666 -453c-153 0 -308 25 -459 74v297c144 -72 287 -109 424 -109c204 0 316 73 316 205c0 136 -113 207 -330 207h-154v248h162c193 0 287 60 287 184c0 115 -96 180 -264 180c-124 0 -252 -28 -377 -83v282
c152 43 302 64 446 64c388 0 580 -127 580 -383c0 -175 -93 -287 -273 -332z" />
    <glyph glyph-name="four" unicode="4" horiz-adv-x="1425" 
d="M92 602l598 891h428v-942h213v-279h-213v-272h-364v272h-662v330zM754 551v625l-422 -625h422z" />
    <glyph glyph-name="five" unicode="5" horiz-adv-x="1425" 
d="M217 653v840h957v-283h-650v-231c59 16 117 25 181 25c364 0 577 -192 577 -517c0 -323 -233 -516 -625 -516c-169 0 -335 32 -499 99v303c163 -93 309 -140 438 -140c187 0 301 98 301 254c0 157 -114 254 -301 254c-111 0 -235 -28 -379 -88z" />
    <glyph glyph-name="six" unicode="6" horiz-adv-x="1425" 
d="M1217 1454v-276c-127 60 -236 88 -343 88c-229 0 -359 -128 -380 -379c88 65 190 98 311 98c305 0 510 -196 510 -485c0 -320 -226 -529 -578 -529c-388 0 -610 273 -610 754c0 493 265 793 698 793c137 0 265 -21 392 -64zM741 737c-135 0 -202 -87 -202 -262
s67 -262 202 -262c136 0 203 87 203 262s-67 262 -203 262z" />
    <glyph glyph-name="seven" unicode="7" horiz-adv-x="1425" 
d="M137 1210v283h1125v-217l-582 -1276h-375l551 1210h-719z" />
    <glyph glyph-name="eight" unicode="8" horiz-adv-x="1425" 
d="M432 795c-181 55 -274 169 -274 338c0 252 191 387 555 387c361 0 553 -134 553 -387c0 -169 -94 -283 -275 -338c203 -56 307 -183 307 -375c0 -296 -198 -449 -585 -449c-388 0 -588 153 -588 449c0 192 104 319 307 375zM522 1094c0 -119 68 -185 191 -185
c120 0 188 66 188 185s-68 184 -188 184c-123 0 -191 -67 -191 -184zM713 668c-144 0 -224 -81 -224 -228s80 -227 224 -227c143 0 221 80 221 227c0 148 -78 228 -221 228z" />
    <glyph glyph-name="nine" unicode="9" horiz-adv-x="1425" 
d="M205 33v276c123 -57 233 -86 342 -86c229 0 358 128 381 379c-91 -67 -192 -100 -312 -100c-305 0 -510 194 -510 485c0 321 225 531 576 531c389 0 612 -274 612 -754c0 -493 -265 -793 -700 -793c-140 0 -266 21 -389 62zM680 752c135 0 203 87 203 262
c0 173 -68 262 -203 262s-203 -89 -203 -262c0 -175 68 -262 203 -262z" />
    <glyph glyph-name="uni00B9" unicode="&#xb9;" horiz-adv-x="897" 
d="M141 668v157h207v521l-225 -52v160l229 49h226v-678h204v-157h-641z" />
    <glyph glyph-name="uni00B2" unicode="&#xb2;" horiz-adv-x="897" 
d="M606 1001l-194 -165h370v-168h-673v153l313 266c81 71 113 120 113 173c0 67 -53 112 -132 112c-83 0 -176 -29 -288 -92v186c116 36 225 54 325 54c211 0 338 -92 338 -240c0 -96 -37 -164 -172 -279z" />
    <glyph glyph-name="uni00B3" unicode="&#xb3;" horiz-adv-x="897" 
d="M592 1120c123 -24 194 -101 194 -209c0 -172 -131 -258 -399 -258c-108 0 -206 16 -297 45v174c88 -48 174 -73 254 -73c127 0 199 44 199 123c0 85 -69 125 -221 125h-74v137h84c131 0 188 30 188 98c0 60 -51 90 -158 90c-69 0 -152 -17 -245 -53v166
c87 23 187 35 303 35c223 0 344 -77 344 -217c0 -92 -63 -159 -172 -183z" />
    <glyph glyph-name="fraction" unicode="&#x2044;" horiz-adv-x="342" 
d="M750 1520l-934 -1549h-224l934 1549h224z" />
    <glyph glyph-name="onehalf" unicode="&#xbd;" horiz-adv-x="2120" 
d="M1667 1520l-934 -1549h-223l934 1549h223zM119 668v157h205v521l-224 -52v160l230 49h223v-678h205v-157h-639zM1843 334l-194 -166h372v-168h-675v154l315 268c83 71 113 118 113 170c0 67 -54 113 -134 113c-83 0 -173 -29 -286 -93v187c117 36 224 53 323 53
c212 0 338 -90 338 -238c0 -96 -40 -168 -172 -280z" />
    <glyph glyph-name="onequarter" unicode="&#xbc;" horiz-adv-x="2120" 
d="M1667 1520l-934 -1549h-223l934 1549h223zM119 668v157h205v521l-224 -52v160l230 49h223v-678h205v-157h-639zM1202 330l373 506h248v-519h137v-155h-137v-162h-230v162h-391v168zM1593 317v324l-239 -324h239z" />
    <glyph glyph-name="threequarters" unicode="&#xbe;" horiz-adv-x="2120" 
d="M606 1120c124 -24 195 -101 195 -209c0 -172 -132 -258 -400 -258c-108 0 -206 16 -297 45v174c88 -48 174 -73 254 -73c127 0 199 44 199 123c0 85 -68 125 -221 125h-74v137h84c131 0 189 30 189 98c0 60 -53 90 -158 90c-71 0 -151 -17 -246 -53v166
c87 23 188 35 303 35c223 0 344 -77 344 -217c0 -92 -63 -159 -172 -183zM1667 1520l-934 -1549h-223l934 1549h223zM1202 330l373 506h248v-519h137v-155h-137v-162h-230v162h-391v168zM1593 317v324l-239 -324h239z" />
    <glyph glyph-name="asterisk" unicode="*" horiz-adv-x="1071" 
d="M954 1358l76 -141l-330 -173l330 -174l-76 -141l-333 184v-344h-170v344l-334 -184l-76 141l334 174l-334 173l76 141l334 -182v344h170v-344z" />
    <glyph glyph-name="backslash" unicode="\" horiz-adv-x="748" 
d="M748 -190h-222l-526 1683h221z" />
    <glyph glyph-name="periodcentered" unicode="&#xb7;" horiz-adv-x="778" 
d="M209 518v387h360v-387h-360z" />
    <glyph glyph-name="bullet" unicode="&#x2022;" horiz-adv-x="1309" 
d="M295 762c0 99 36 187 104 254c71 68 159 104 256 104s187 -37 254 -104c69 -69 105 -157 105 -254c0 -99 -37 -188 -105 -256s-157 -105 -256 -105c-97 0 -186 37 -254 105c-67 68 -104 157 -104 256z" />
    <glyph glyph-name="colon" unicode=":" horiz-adv-x="819" 
d="M231 1185h360v-311h-360v311zM230 746h361v-311h-361v311zM230 2v310h360v-310h-360z" />
    <glyph glyph-name="comma" unicode="," horiz-adv-x="778" 
d="M209 82v305h360v-305l-247 -373h-213z" />
    <glyph glyph-name="ellipsis" unicode="&#x2026;" horiz-adv-x="2048" 
d="M162 0v387h360v-387h-360zM844 0v387h360v-387h-360zM1526 0v387h360v-387h-360z" />
    <glyph glyph-name="exclam" unicode="!" horiz-adv-x="934" 
d="M287 920v573h360v-573l-51 -418h-258zM287 0v356h360v-356h-360z" />
    <glyph glyph-name="exclamdown" unicode="&#xa1;" horiz-adv-x="934" 
d="M647 1137h-360v356h360v-356zM647 0h-360v573l51 418h258l51 -418v-573z" />
    <glyph glyph-name="numbersign" unicode="#" horiz-adv-x="1716" 
d="M688 1470h223l-96 -385h264l97 385h221l-97 -385h277v-213h-330l-69 -274h284v-215h-336l-96 -383h-221l96 383h-264l-96 -383h-223l96 383h-279v215h328l70 274h-283v213h338zM954 598l70 274h-264l-70 -274h264z" />
    <glyph glyph-name="period" unicode="." horiz-adv-x="778" 
d="M209 0v387h360v-387h-360z" />
    <glyph glyph-name="question" unicode="?" horiz-adv-x="1188" 
d="M709 549v-45h-361v49c0 109 31 176 172 307l64 58c76 69 110 129 110 190c0 93 -67 149 -182 149c-108 0 -235 -45 -371 -133v314c161 56 290 82 414 82c325 0 500 -135 500 -390c0 -131 -47 -223 -172 -342l-64 -57c-91 -83 -110 -122 -110 -182zM348 0v356h361v-356
h-361z" />
    <glyph glyph-name="questiondown" unicode="&#xbf;" horiz-adv-x="1188" 
d="M848 1493v-356h-361v356h361zM487 942v45h361v-49c0 -108 -29 -174 -174 -307l-64 -58c-75 -68 -108 -127 -108 -190c0 -93 67 -150 182 -150c108 0 236 46 371 134v-314c-159 -56 -291 -82 -414 -82c-325 0 -500 136 -500 389c0 132 47 225 172 342l64 58
c91 81 110 122 110 182z" />
    <glyph glyph-name="quotedbl" unicode="&#x22;" horiz-adv-x="1067" 
d="M195 1493h237v-555h-237v555zM635 1493h237v-555h-237v555z" />
    <glyph glyph-name="quotesingle" unicode="'" horiz-adv-x="627" 
d="M195 1493h237v-555h-237v555z" />
    <glyph glyph-name="semicolon" unicode=";" horiz-adv-x="819" 
d="M229 733v387h361v-387h-361zM229 82v305h361v-305l-248 -373h-213z" />
    <glyph glyph-name="slash" unicode="/" horiz-adv-x="748" 
d="M0 -190l526 1683h222l-527 -1683h-221z" />
    <glyph glyph-name="underscore" unicode="_" 
d="M0 -293h1024v-190h-1024v190z" />
    <glyph glyph-name="periodcentered.257" horiz-adv-x="778" 
d="M209 518v387h360v-387h-360z" />
    <glyph glyph-name="colon.001" horiz-adv-x="819" 
d="M231 1185h360v-311h-360v311zM230 746h361v-311h-361v311zM230 2v310h360v-310h-360z" />
    <glyph glyph-name="braceleft" unicode="{" horiz-adv-x="1458" 
d="M1133 -109h69v-225h-217c-291 0 -418 112 -418 369v192c0 200 -61 267 -250 267h-61v223h61c189 0 250 66 250 266v205c0 257 127 368 418 368h217v-225h-69c-188 0 -226 -40 -226 -229v-166c0 -209 -53 -291 -200 -324c148 -36 200 -117 200 -325v-166
c0 -191 38 -230 226 -230z" />
    <glyph glyph-name="braceright" unicode="}" horiz-adv-x="1458" 
d="M256 -334v225h70c187 0 225 39 225 230v166c0 208 53 289 201 325c-148 33 -201 115 -201 324v166c0 189 -38 229 -225 229h-70v225h217c291 0 418 -111 418 -368v-205c0 -200 61 -266 250 -266h61v-223h-61c-189 0 -250 -67 -250 -267v-192c0 -257 -127 -369 -418 -369
h-217z" />
    <glyph glyph-name="bracketleft" unicode="[" horiz-adv-x="936" 
d="M176 -270v1826h621v-225h-281v-1376h281v-225h-621z" />
    <glyph glyph-name="bracketright" unicode="]" horiz-adv-x="936" 
d="M760 1556v-1826h-621v225h281v1376h-281v225h621z" />
    <glyph glyph-name="parenleft" unicode="(" horiz-adv-x="936" 
d="M772 -270h-297c-204 329 -299 619 -299 911s96 586 299 913h297c-171 -316 -256 -616 -256 -911s84 -596 256 -913z" />
    <glyph glyph-name="parenright" unicode=")" horiz-adv-x="936" 
d="M461 -270h-297c171 317 256 618 256 913s-85 595 -256 911h297c203 -327 299 -621 299 -913s-95 -582 -299 -911z" />
    <glyph glyph-name="emdash" unicode="&#x2014;" horiz-adv-x="2048" 
d="M0 432v258h2048v-258h-2048z" />
    <glyph glyph-name="endash" unicode="&#x2013;" 
d="M0 432v258h1024v-258h-1024z" />
    <glyph glyph-name="hyphen" unicode="-" horiz-adv-x="850" 
d="M111 444v291h628v-291h-628z" />
    <glyph glyph-name="uni00AD" unicode="&#xad;" horiz-adv-x="850" 
d="M111 444v291h628v-291h-628z" />
    <glyph glyph-name="guillemotleft" unicode="&#xab;" horiz-adv-x="1323" 
d="M158 692l493 371v-242l-293 -221l293 -221v-242l-493 369v186zM637 692l493 371v-242l-292 -221l292 -221v-242l-493 369v186z" />
    <glyph glyph-name="guillemotright" unicode="&#xbb;" horiz-adv-x="1323" 
d="M193 821v242l491 -371v-186l-491 -369v242l292 221zM672 821v242l493 -371v-186l-493 -369v242l293 221z" />
    <glyph glyph-name="guilsinglleft" unicode="&#x2039;" horiz-adv-x="844" 
d="M158 692l493 371v-242l-293 -221l293 -221v-242l-493 369v186z" />
    <glyph glyph-name="guilsinglright" unicode="&#x203a;" horiz-adv-x="844" 
d="M193 821v242l493 -371v-186l-493 -369v242l292 221z" />
    <glyph glyph-name="quotedblbase" unicode="&#x201e;" horiz-adv-x="1346" 
d="M248 102v285h340v-285l-230 -352h-211zM754 100v287h340v-287l-228 -350h-213z" />
    <glyph glyph-name="quotedblleft" unicode="&#x201c;" horiz-adv-x="1346" 
d="M551 1141v-285h-340v285l227 352h213zM1057 1139v-283h-340v283l227 354h213z" />
    <glyph glyph-name="quotedblright" unicode="&#x201d;" horiz-adv-x="1346" 
d="M289 1208v285h340v-285l-228 -352h-213zM795 1206v287h340v-287l-228 -350h-213z" />
    <glyph glyph-name="quoteleft" unicode="&#x2018;" horiz-adv-x="778" 
d="M551 1141v-285h-340v285l227 352h213z" />
    <glyph glyph-name="quoteright" unicode="&#x2019;" horiz-adv-x="778" 
d="M229 1208v285h340v-285l-227 -352h-213z" />
    <glyph glyph-name="quotesinglbase" unicode="&#x201a;" horiz-adv-x="778" 
d="M248 102v285h340v-285l-230 -352h-211z" />
    <glyph glyph-name="space" unicode=" " horiz-adv-x="713" 
 />
    <glyph glyph-name="uni00A0" unicode="&#xa0;" horiz-adv-x="1425" 
 />
    <glyph glyph-name="CR" unicode="&#xd;" horiz-adv-x="713" 
 />
    <glyph glyph-name="cent" unicode="&#xa2;" horiz-adv-x="1425" 
d="M1161 1085v-292c-99 64 -195 98 -282 98h-15v-663c119 1 221 35 297 98v-293c-111 -40 -210 -62 -287 -62h-10v-284h-162v288c-349 53 -528 256 -528 600c0 325 184 523 528 570v287h162l1 -287c95 -4 192 -23 296 -60zM702 260v598c-104 -59 -155 -155 -155 -299
c0 -145 51 -243 155 -299z" />
    <glyph glyph-name="currency" unicode="&#xa4;" horiz-adv-x="1303" 
d="M434 268l-207 -207l-153 154l207 207c-37 65 -56 135 -56 219s20 156 60 217l-209 205l153 154l207 -207c64 40 136 59 217 59c72 0 143 -18 219 -55l207 207l152 -154l-207 -207c39 -73 57 -147 57 -219c0 -84 -19 -152 -59 -215l207 -207l-154 -153l-207 206
c-61 -40 -131 -59 -215 -59c-77 0 -148 18 -219 55zM653 422c121 0 219 96 219 219s-96 219 -219 219c-121 0 -219 -96 -219 -219c0 -124 95 -219 219 -219z" />
    <glyph glyph-name="dollar" unicode="$" horiz-adv-x="1425" 
d="M795 2v-303h-162l-1 301c-167 7 -322 37 -470 92v262c153 -79 310 -121 471 -126v311l-33 6c-319 56 -440 166 -440 391c0 239 169 377 472 389l1 231h162v-227c133 -11 266 -33 401 -69v-254c-133 56 -266 87 -401 94v-287l32 -6c339 -53 459 -166 459 -410
c0 -245 -162 -376 -491 -395zM633 836v261c-95 -5 -156 -55 -156 -126c0 -79 52 -123 156 -135zM795 510v-278c116 1 174 45 174 133c0 91 -49 132 -174 145z" />
    <glyph glyph-name="Euro" unicode="&#x20ac;" horiz-adv-x="1425" 
d="M1288 391v-309c-127 -73 -265 -111 -414 -111c-349 0 -596 179 -696 506h-217l88 195h98c-1 19 -2 36 -2 73c0 39 1 56 2 76h-186l88 195h129c103 328 347 504 696 504c149 0 287 -38 414 -111v-309c-108 104 -232 157 -364 157c-169 0 -291 -84 -351 -241h539l-86 -195
h-493c-3 -21 -3 -40 -3 -88c0 -17 1 -38 2 -61h429l-89 -195h-299c67 -163 183 -244 351 -244c132 0 252 53 364 158z" />
    <glyph glyph-name="florin" unicode="&#x192;" horiz-adv-x="1425" 
d="M1335 1516v-254c-61 39 -116 57 -172 57c-120 0 -181 -68 -217 -256l-33 -168h285v-238h-332l-133 -673c-55 -275 -206 -410 -461 -410c-87 0 -175 13 -266 41v254c61 -39 117 -57 172 -57c119 0 178 68 217 256l117 589h-242v238h289l51 252c56 275 206 409 459 409
c88 0 175 -13 266 -40z" />
    <glyph glyph-name="sterling" unicode="&#xa3;" horiz-adv-x="1425" 
d="M1243 1466v-286c-93 52 -192 77 -295 77c-157 0 -231 -81 -231 -256v-170h373v-239h-373v-326h538v-266h-1130v266h227v326h-194v239h194v170c0 361 162 519 529 519c123 0 243 -18 362 -54z" />
    <glyph glyph-name="yen" unicode="&#xa5;" horiz-adv-x="1425" 
d="M1358 610v-194h-455v-416h-381v416h-454v194h454v66l-49 86h-405v192h292l-335 539h399l289 -461l288 461h400l-336 -539h293v-192h-406l-49 -86v-66h455z" />
    <glyph glyph-name="plus" unicode="+" horiz-adv-x="1716" 
d="M739 1284h238v-524h522v-236h-522v-524h-238v524h-522v236h522v524z" />
    <glyph glyph-name="minus" unicode="&#x2212;" horiz-adv-x="1716" 
d="M217 524v236h1282v-236h-1282z" />
    <glyph glyph-name="multiply" unicode="&#xd7;" horiz-adv-x="1716" 
d="M1292 1243l168 -168l-434 -434l434 -432l-168 -168l-434 432l-434 -432l-168 168l434 432l-434 434l168 168l434 -434z" />
    <glyph glyph-name="divide" unicode="&#xf7;" horiz-adv-x="1716" 
d="M705 889v309h307v-309h-307zM217 524v236h1282v-236h-1282zM705 86v309h307v-309h-307z" />
    <glyph glyph-name="equal" unicode="=" horiz-adv-x="1716" 
d="M217 752v235h1282v-235h-1282zM217 295v237h1282v-237h-1282z" />
    <glyph glyph-name="notequal" unicode="&#x2260;" horiz-adv-x="1716" 
d="M217 752v235h791l252 305l149 -125l-145 -180h235v-235h-418l-174 -220h592v-237h-790l-252 -305l-150 127l146 178h-236v237h424l176 220h-600z" />
    <glyph glyph-name="greater" unicode="&#x3e;" horiz-adv-x="1716" 
d="M1182 641l-965 332v250l1282 -463v-236l-1282 -463v250z" />
    <glyph glyph-name="less" unicode="&#x3c;" horiz-adv-x="1716" 
d="M1499 1223v-250l-964 -332l964 -330v-250l-1282 463v236z" />
    <glyph glyph-name="greaterequal" unicode="&#x2265;" horiz-adv-x="1716" 
d="M1114 739l-897 209v244l1282 -334v-235l-1282 -336v243zM217 0v238h1282v-238h-1282z" />
    <glyph glyph-name="lessequal" unicode="&#x2264;" horiz-adv-x="1716" 
d="M1499 1192v-244l-897 -209l897 -209v-243l-1282 336v235zM217 238h1282v-238h-1282v238z" />
    <glyph glyph-name="plusminus" unicode="&#xb1;" horiz-adv-x="1716" 
d="M739 1284h238v-354h522v-236h-522v-354h-238v354h-522v236h522v354zM217 0v238h1282v-238h-1282z" />
    <glyph glyph-name="approxequal" unicode="&#x2248;" horiz-adv-x="1716" 
d="M1499 1059v-244c-141 -107 -253 -149 -381 -149c-71 0 -155 19 -250 58l-22 9c-5 2 -12 5 -22 9c-103 41 -186 61 -249 61c-117 0 -227 -49 -358 -160v244c140 104 252 147 381 147c73 0 159 -20 257 -59l15 -6c5 -2 13 -5 22 -9c103 -41 186 -61 249 -61
c115 0 221 47 358 160zM1499 641v-244c-141 -107 -253 -149 -381 -149c-71 0 -155 19 -250 58c-9 4 -17 7 -23 10c-4 1 -11 4 -21 8c-103 41 -186 61 -249 61c-117 0 -227 -48 -358 -160v244c143 107 253 149 381 149c71 0 155 -19 250 -58l22 -9c5 -2 13 -5 22 -8
c103 -41 186 -62 249 -62c115 0 221 47 358 160z" />
    <glyph glyph-name="asciitilde" unicode="~" horiz-adv-x="1716" 
d="M1499 850v-244c-141 -107 -253 -149 -381 -149c-71 0 -155 19 -250 58l-22 9c-5 2 -12 5 -22 9c-103 41 -186 61 -249 61c-117 0 -227 -49 -358 -160v244c143 107 253 149 381 149c71 0 155 -19 250 -58l22 -9c5 -2 12 -5 22 -9c103 -41 186 -61 249 -61
c115 0 221 47 358 160z" />
    <glyph glyph-name="logicalnot" unicode="&#xac;" horiz-adv-x="1716" 
d="M217 672v237h1282v-622h-235v385h-1047z" />
    <glyph glyph-name="infinity" unicode="&#x221e;" horiz-adv-x="1706" 
d="M856 442c-91 -173 -195 -256 -324 -256c-185 0 -337 183 -337 422c0 251 128 422 315 422c120 0 210 -65 342 -256c95 176 197 258 324 258c187 0 337 -182 337 -422c0 -252 -128 -424 -315 -424c-121 0 -207 61 -342 256zM752 657c-57 89 -134 134 -234 134
c-120 0 -203 -74 -203 -179c0 -103 76 -178 179 -178c95 0 171 66 258 223zM956 561c57 -89 137 -135 234 -135c120 0 203 75 203 180c0 103 -78 178 -179 178c-96 0 -169 -60 -258 -223z" />
    <glyph glyph-name="integral" unicode="&#x222b;" horiz-adv-x="1249" 
d="M362 -248c66 0 106 222 119 667l4 154c11 349 55 600 131 753c75 153 192 230 349 230c140 0 235 -78 235 -190c0 -85 -60 -143 -147 -143c-85 0 -129 52 -129 151c0 25 -2 42 -7 49s-14 11 -26 11c-67 0 -109 -222 -124 -667c-1 -40 -2 -70 -3 -91
c-7 -219 -17 -377 -30 -472c-26 -192 -87 -383 -217 -494c-65 -55 -142 -83 -230 -83c-143 0 -236 75 -236 191c0 87 61 143 154 143c80 0 125 -50 125 -139c0 -8 -1 -16 -2 -24v-3c0 -32 10 -43 34 -43z" />
    <glyph glyph-name="uni2206" unicode="&#x2206;" horiz-adv-x="1427" 
d="M0 0l563 1473h301l563 -1473h-1427zM1040 256l-327 854l-326 -854h653z" />
    <glyph glyph-name="product" unicode="&#x220f;" horiz-adv-x="1612" 
d="M150 -393v1866h1308v-1866h-344v1577h-620v-1577h-344z" />
    <glyph glyph-name="summation" unicode="&#x2211;" horiz-adv-x="1470" 
d="M66 1241v232h1308v-265h-878l620 -645l-622 -690h933v-266h-1386v172l698 772z" />
    <glyph glyph-name="radical" unicode="&#x221a;" horiz-adv-x="1366" 
d="M659 371l496 1343h215v-149h-96l-590 -1606h-119l-307 846l-145 -55l-37 129l360 127z" />
    <glyph glyph-name="uni00B5" unicode="&#xb5;" horiz-adv-x="1507" 
d="M535 -428h-361v1548h361v-651c0 -155 66 -229 202 -229c137 0 203 74 203 229v651h360v-749c0 -95 20 -127 72 -127c24 0 45 6 70 22v-250c-71 -31 -131 -45 -191 -45c-119 0 -190 47 -237 158c-63 -105 -152 -158 -271 -158c-99 0 -168 31 -208 95v-494z" />
    <glyph glyph-name="partialdiff" unicode="&#x2202;" horiz-adv-x="1114" 
d="M766 684c28 151 43 280 43 356c0 116 -46 209 -98 209c-23 0 -67 -31 -132 -93s-125 -93 -180 -93c-64 0 -112 50 -112 117c0 92 144 182 313 182c280 0 455 -229 455 -602c0 -459 -240 -785 -580 -785c-243 0 -416 172 -416 416c0 271 179 469 418 469
c135 0 224 -55 289 -176zM698 532c0 152 -50 238 -141 238c-128 0 -225 -203 -225 -483c0 -155 50 -236 143 -236c129 0 223 201 223 481z" />
    <glyph glyph-name="percent" unicode="%" horiz-adv-x="2052" 
d="M465 1520c248 0 399 -154 399 -406s-151 -407 -399 -407s-399 155 -399 407s151 406 399 406zM1604 1520l-934 -1549h-221l933 1549h222zM465 1352c-96 0 -150 -86 -150 -238c0 -153 54 -240 150 -240s149 87 149 240c0 152 -54 238 -149 238zM1587 784
c248 0 400 -153 400 -405s-152 -408 -400 -408s-401 156 -401 408c0 251 153 405 401 405zM1587 616c-95 0 -149 -85 -149 -237c0 -153 53 -238 149 -238s148 85 148 238c0 152 -53 237 -148 237z" />
    <glyph glyph-name="perthousand" unicode="&#x2030;" horiz-adv-x="2949" 
d="M465 1520c248 0 399 -154 399 -406s-151 -407 -399 -407s-399 155 -399 407s151 406 399 406zM1604 1520l-934 -1549h-221l933 1549h222zM465 1352c-96 0 -150 -86 -150 -238c0 -153 54 -240 150 -240s149 87 149 240c0 152 -54 238 -149 238zM1587 784
c248 0 400 -153 400 -405s-152 -408 -400 -408s-401 156 -401 408c0 251 153 405 401 405zM2503 784c248 0 399 -153 399 -405s-152 -408 -399 -408c-248 0 -402 156 -402 408c0 251 153 405 402 405zM1587 616c-95 0 -149 -85 -149 -237c0 -153 53 -238 149 -238
s148 85 148 238c0 152 -53 237 -148 237zM2503 616c-96 0 -150 -85 -150 -237c0 -153 54 -238 150 -238c95 0 147 85 147 238c0 152 -52 237 -147 237z" />
    <glyph glyph-name="lozenge" unicode="&#x25ca;" horiz-adv-x="1012" 
d="M6 592l500 1061l500 -1061l-500 -1069zM891 592l-385 817l-385 -817l385 -825z" />
    <glyph glyph-name="at" unicode="@" horiz-adv-x="2048" 
d="M1241 84v154c-40 -95 -133 -150 -252 -150c-229 0 -387 182 -387 449s159 450 387 450c119 0 212 -56 252 -151v131h209v-693c165 25 266 168 266 377c0 133 -38 251 -117 348c-127 163 -325 254 -546 254c-155 0 -298 -41 -418 -120c-197 -131 -313 -349 -313 -590
c0 -199 73 -377 208 -510c133 -131 310 -201 506 -201c168 0 348 67 467 174l107 -162c-167 -129 -369 -200 -572 -200c-247 0 -470 89 -641 256s-262 391 -262 643c0 243 94 470 262 637c168 165 401 260 641 260c299 0 549 -117 713 -332c100 -131 152 -285 152 -453
c0 -361 -227 -571 -623 -571h-39zM831 539c0 -164 75 -265 195 -265c119 0 195 102 195 265c0 161 -77 262 -197 262c-117 0 -193 -101 -193 -262z" />
    <glyph glyph-name="ampersand" unicode="&#x26;" horiz-adv-x="1786" 
d="M799 991l409 -450c71 93 106 207 113 354h311c-20 -243 -93 -430 -225 -573l293 -322h-424l-98 109c-140 -93 -294 -138 -467 -138c-351 0 -588 204 -588 496c0 195 89 336 305 477c-56 71 -82 140 -82 217c0 217 184 359 465 359c121 0 252 -19 395 -58v-278
c-125 64 -235 94 -342 94c-103 0 -162 -41 -162 -113c0 -45 33 -103 97 -174zM991 311l-391 432c-87 -63 -131 -142 -131 -237c0 -153 130 -277 289 -277c89 0 166 27 233 82z" />
    <glyph glyph-name="paragraph" unicode="&#xb6;" horiz-adv-x="1303" 
d="M604 1493h520v-1690h-190v1543h-189v-1543h-190v846c-272 33 -426 185 -426 422c0 253 188 422 475 422z" />
    <glyph glyph-name="section" unicode="&#xa7;" 
d="M885 1462v-227c-132 52 -238 78 -314 78c-100 0 -151 -33 -151 -96c0 -45 63 -93 188 -146c17 -7 30 -13 39 -16c280 -119 369 -220 369 -387c0 -156 -74 -260 -230 -324c103 -55 152 -130 152 -227c0 -193 -171 -312 -455 -312c-113 0 -232 19 -368 58v237
c153 -55 278 -84 354 -84c87 0 143 37 143 90c0 47 -60 95 -180 144c-24 9 -42 17 -55 22c-271 116 -363 223 -363 396c0 139 73 241 224 309c-100 68 -140 137 -140 237c0 192 162 306 430 306c112 0 233 -19 357 -58zM434 856c-91 -37 -135 -87 -135 -154
c0 -45 21 -83 62 -116s122 -71 243 -115c87 31 135 85 135 154c0 45 -23 85 -69 120s-125 72 -236 111z" />
    <glyph glyph-name="copyright" unicode="&#xa9;" horiz-adv-x="2048" 
d="M1024 1485c203 0 379 -74 524 -219s217 -320 217 -525c0 -203 -72 -377 -217 -522s-321 -219 -524 -219s-379 74 -524 219s-217 319 -217 522c0 205 72 380 217 525s321 219 524 219zM1024 1331c-161 0 -300 -58 -416 -174s-174 -253 -174 -416c0 -161 58 -299 174 -415
c115 -115 255 -172 416 -172c164 0 300 56 416 172s174 254 174 415c0 163 -58 300 -174 416c-117 117 -255 174 -416 174zM1323 1126v-215c-76 49 -149 72 -225 72c-151 0 -240 -90 -240 -242c0 -153 88 -241 240 -241c85 0 164 24 225 71v-213c-87 -29 -175 -45 -258 -45
c-281 0 -465 169 -465 428c0 260 184 428 465 428c92 0 177 -14 258 -43z" />
    <glyph glyph-name="registered" unicode="&#xae;" horiz-adv-x="2048" 
d="M1024 1485c203 0 379 -74 524 -219s217 -320 217 -525c0 -203 -72 -377 -217 -522s-321 -219 -524 -219s-379 74 -524 219s-217 319 -217 522c0 205 72 380 217 525s321 219 524 219zM1024 1331c-161 0 -300 -58 -416 -174s-174 -253 -174 -416c0 -161 58 -299 174 -415
c115 -115 255 -172 416 -172c164 0 300 56 416 172s174 254 174 415c0 163 -58 300 -174 416c-117 117 -255 174 -416 174zM719 1174h285c235 0 350 -79 350 -240c0 -115 -73 -192 -201 -215c55 -29 102 -83 141 -160l111 -221h-229l-107 213c-25 52 -48 89 -67 111
c-19 21 -39 32 -58 32h-12v-356h-213v836zM967 1036h-35v-207h35c104 0 157 36 157 105s-50 102 -157 102z" />
    <glyph glyph-name="trademark" unicode="&#x2122;" horiz-adv-x="2048" 
d="M295 1493h518v-143h-174v-435h-172v435h-172v143zM926 1493h227l119 -227l119 227h227v-578h-170v437l-137 -256h-76l-137 256v-437h-172v578z" />
    <glyph glyph-name="degree" unicode="&#xb0;" 
d="M512 1534c88 0 172 -35 236 -98c63 -64 96 -145 96 -236c0 -89 -34 -173 -94 -233c-64 -64 -149 -99 -240 -99c-188 0 -332 144 -332 332s146 334 334 334zM512 1372c-96 0 -172 -76 -172 -172s75 -170 172 -170c96 0 172 75 172 170c0 96 -77 172 -172 172z" />
    <glyph glyph-name="bar" unicode="|" horiz-adv-x="748" 
d="M260 1565h227v-2048h-227v2048z" />
    <glyph glyph-name="brokenbar" unicode="&#xa6;" horiz-adv-x="748" 
d="M260 1432h227v-758h-227v758zM260 408h227v-758h-227v758z" />
    <glyph glyph-name="dagger" unicode="&#x2020;" 
d="M342 1112v381h330v-381h291v-238h-291v-1071h-330v1071h-289v238h289z" />
    <glyph glyph-name="daggerdbl" unicode="&#x2021;" 
d="M342 1112v381h330v-381h291v-238h-291v-452h291v-238h-291v-381h-330v381h-291v238h291v452h-289v238h289z" />
    <glyph glyph-name="asciicircum" unicode="^" horiz-adv-x="1716" 
d="M735 1493h246l528 -557h-241l-410 301l-409 -301h-242z" />
    <glyph glyph-name="acute" unicode="&#xb4;" 
d="M365 1262l282 376h283l-369 -376h-196z" />
    <glyph glyph-name="breve" unicode="&#x2d8;" 
d="M176 1606h143c15 -93 82 -144 193 -144s178 51 193 144h143c-8 -192 -128 -297 -336 -297s-328 105 -336 297z" />
    <glyph glyph-name="caron" unicode="&#x2c7;" 
d="M633 1262h-242l-256 376h178l199 -227l199 227h178z" />
    <glyph glyph-name="cedilla" unicode="&#xb8;" 
d="M463 0h139c77 -83 113 -152 113 -215c0 -127 -81 -186 -250 -186c-64 0 -133 9 -202 26l-1 152c67 -21 122 -31 166 -31c77 0 123 33 123 86c0 35 -28 88 -88 168z" />
    <glyph glyph-name="circumflex" unicode="&#x2c6;" 
d="M135 1262l256 376h242l256 -376h-178l-199 225l-199 -225h-178z" />
    <glyph glyph-name="dieresis" unicode="&#xa8;" 
d="M197 1339v246h235v-246h-235zM592 1339v246h235v-246h-235z" />
    <glyph glyph-name="dotaccent" unicode="&#x2d9;" 
d="M375 1339v246h274v-246h-274z" />
    <glyph glyph-name="grave" unicode="`" 
d="M94 1638h283l282 -376h-196z" />
    <glyph glyph-name="hungarumlaut" unicode="&#x2dd;" 
d="M193 1262l194 376h217l-248 -376h-163zM535 1262l215 376h231l-272 -376h-174z" />
    <glyph glyph-name="macron" unicode="&#xaf;" 
d="M197 1368v188h630v-188h-630z" />
    <glyph glyph-name="ogonek" unicode="&#x2db;" 
d="M453 0h141c-33 -45 -56 -79 -69 -103c-13 -25 -19 -46 -19 -63c0 -52 43 -88 108 -88c52 0 103 10 156 31v-156c-73 -15 -135 -22 -190 -22c-153 0 -238 63 -238 178c0 71 35 142 111 223z" />
    <glyph glyph-name="ring" unicode="&#x2da;" 
d="M227 1534c0 157 128 285 285 285s285 -128 285 -285s-128 -285 -285 -285s-285 128 -285 285zM381 1534c0 -73 59 -131 131 -131c73 0 131 59 131 131s-59 131 -131 131c-73 0 -131 -59 -131 -131z" />
    <glyph glyph-name="tilde" unicode="&#x2dc;" 
d="M514 1364l-55 37c-3 1 -6 3 -10 6c-31 21 -55 31 -72 31c-48 0 -74 -42 -74 -121v-8h-139c0 181 72 284 196 284c48 0 95 -17 150 -57l61 -43c29 -20 54 -31 74 -31c48 0 76 45 76 121v8h139c0 -181 -72 -284 -196 -284c-48 0 -87 13 -150 57z" />
    <glyph glyph-name="uni0000" horiz-adv-x="0" 
 />
    <glyph glyph-name="uni0000" horiz-adv-x="0" 
 />
    <glyph glyph-name="c6459" 
d="M197 1280v246h235v-246h-235zM592 1280v246h235v-246h-235z" />
    <glyph glyph-name="c6460" 
d="M365 1262l198 264h283l-285 -264h-196z" />
    <glyph glyph-name="c6461" 
d="M514 1311l-56 35l-10 6c-30 17 -54 26 -73 26c-43 0 -72 -43 -72 -110v-6h-139c0 3 0 8 1 15s1 12 1 15c0 141 78 236 194 236c49 0 98 -17 150 -49l59 -39c28 -19 55 -29 76 -29c49 0 76 41 76 117h139c0 -4 0 -9 -1 -16s-1 -12 -1 -15c0 -141 -78 -235 -194 -235
c-51 0 -94 13 -150 49z" />
    <glyph glyph-name="c6462" 
d="M178 1526h283l198 -264h-196z" />
    <glyph glyph-name="c6463" 
d="M135 1262l223 264h308l223 -264h-178l-199 161l-199 -161h-178z" />
    <glyph glyph-name="c6466" 
d="M666 1262h-308l-223 264h178l199 -162l199 162h178z" />
    <glyph glyph-name="c6467" 
d="M176 1526h143c28 -81 92 -121 193 -121s165 40 193 121h143c-21 -172 -139 -264 -336 -264s-315 92 -336 264z" />
    <glyph glyph-name="c6468" 
d="M375 1280v246h274v-246h-274z" />
    </font>
</defs>
</svg>
