<?xml version="1.0" standalone="no"?>
<!DOCTYPE svg PUBLIC "-//W3C//DTD SVG 1.1//EN" "http://www.w3.org/Graphics/SVG/1.1/DTD/svg11.dtd" >
<svg xmlns="http://www.w3.org/2000/svg" xmlns:xlink="http://www.w3.org/1999/xlink" version="1.1">
<metadata>
Created by FontForge 20170924 at Sun Apr 16 17:33:59 2017
 By www-data
Copyright \(c\) 2017 by Hot Action Records. All Rights Reserved.
</metadata>
<defs>
<font id="ArzteSans-BoldItalic" horiz-adv-x="1024" >
  <font-face 
    font-family="A:rzte Sans Roman"
    font-weight="700"
    font-style="italic"
    font-stretch="normal"
    units-per-em="2048"
    panose-1="2 11 8 3 3 3 4 11 2 4"
    ascent="1556"
    descent="-492"
    x-height="1120"
    cap-height="1493"
    bbox="-569 -492 2869 1901"
    underline-thickness="258"
    underline-position="-356"
    slope="-11"
    unicode-range="U+000D-FB02"
  />
<missing-glyph 
d="M840 1556v-2048h-650v2048h650zM682 1419h-338v-68h133v-76h-135v-67h340v67h-135v76h135v68zM547 1155h-205v-213h340v69h-135v144zM477 1085v-74h-67v74h67zM682 886h-340v-67h135v-76h-135v-68h205v144h135v67zM682 763h-68v-135h-272v-69h340v204zM682 514h-205v-115
h70v47h67v-96h-204v164h-68v-232h340v232zM682 159h-340v-231h340v231zM614 92v-97h-204v97h204zM682 -119h-340v-68h143l-143 -96v-68h340v68h-209l143 96h66v68z" />
    <glyph glyph-name=".notdef" 
d="M840 1556v-2048h-650v2048h650zM682 1419h-338v-68h133v-76h-135v-67h340v67h-135v76h135v68zM547 1155h-205v-213h340v69h-135v144zM477 1085v-74h-67v74h67zM682 886h-340v-67h135v-76h-135v-68h205v144h135v67zM682 763h-68v-135h-272v-69h340v204zM682 514h-205v-115
h70v47h67v-96h-204v164h-68v-232h340v232zM682 159h-340v-231h340v231zM614 92v-97h-204v97h204zM682 -119h-340v-68h143l-143 -96v-68h340v68h-209l143 96h66v68z" />
    <glyph glyph-name="A" unicode="A" horiz-adv-x="1585" 
d="M1049 0l-43 272h-596l-148 -272h-395l844 1493h440l264 -1493h-366zM866 1118l-311 -575h401z" />
    <glyph glyph-name="Aacute" unicode="&#xc1;" horiz-adv-x="1585" 
d="M789 1635l246 264h280l-319 -264h-207zM1049 0l-43 272h-596l-148 -272h-395l844 1493h440l264 -1493h-366zM866 1118l-311 -575h401z" />
    <glyph glyph-name="Acircumflex" unicode="&#xc2;" horiz-adv-x="1585" 
d="M555 1635l244 264h348l152 -264h-170l-164 161l-231 -161h-179zM1049 0l-43 272h-596l-148 -272h-395l844 1493h440l264 -1493h-366zM866 1118l-311 -575h401z" />
    <glyph glyph-name="Adieresis" unicode="&#xc4;" horiz-adv-x="1585" 
d="M526 1651l39 246h201l-42 -246h-198zM838 1651l39 246h201l-42 -246h-198zM1145 1650l39 246h201l-42 -246h-198zM1049 0l-43 272h-596l-148 -272h-395l844 1493h440l264 -1493h-366zM866 1118l-311 -575h401z" />
    <glyph glyph-name="Agrave" unicode="&#xc0;" horiz-adv-x="1585" 
d="M676 1899h264l144 -264h-178zM1049 0l-43 272h-596l-148 -272h-395l844 1493h440l264 -1493h-366zM866 1118l-311 -575h401z" />
    <glyph glyph-name="Aring" unicode="&#xc5;" horiz-adv-x="1585" 
d="M1155 1456l260 -1456h-366l-43 272h-596l-148 -272h-395l825 1458c-35 49 -51 99 -51 158c0 156 128 285 285 285c156 0 284 -129 284 -285c0 -64 -16 -113 -55 -160zM795 1616c0 -72 59 -131 131 -131s131 59 131 131s-60 131 -131 131c-72 0 -131 -59 -131 -131z
M866 1118l-311 -575h401z" />
    <glyph glyph-name="Atilde" unicode="&#xc3;" horiz-adv-x="1585" 
d="M942 1686l-49 37c-32 25 -51 32 -75 32c-48 0 -84 -45 -99 -120h-137c35 171 125 266 252 266c49 0 90 -15 137 -51l53 -41c21 -17 47 -27 68 -27c52 0 89 42 102 119h138c-35 -171 -126 -266 -250 -266c-51 0 -89 12 -140 51zM1049 0l-43 272h-596l-148 -272h-395
l844 1493h440l264 -1493h-366zM866 1118l-311 -575h401z" />
    <glyph glyph-name="AE" unicode="&#xc6;" horiz-adv-x="2222" 
d="M-160 0l934 1493h1421l-57 -291h-653l-53 -278h614l-57 -291h-615l-65 -342h673l-55 -291h-1061l68 350h-492l-217 -350h-385zM1106 1237h-121l-375 -610h377z" />
    <glyph glyph-name="B" unicode="B" horiz-adv-x="1561" 
d="M1161 799c131 -37 205 -140 205 -287c0 -321 -251 -512 -684 -512h-639l291 1493h577c355 0 521 -102 521 -319c0 -183 -110 -334 -271 -375zM604 915h215c137 0 219 74 219 195c0 79 -56 121 -157 121h-215zM477 262h228c176 0 274 87 274 244c0 100 -64 147 -199 147
h-227z" />
    <glyph glyph-name="C" unicode="C" horiz-adv-x="1503" 
d="M1307 401l-66 -331c-184 -65 -354 -99 -506 -99c-401 0 -661 239 -661 602c0 239 77 452 225 627c175 205 429 320 713 320c155 0 310 -36 471 -111l-62 -309c-128 97 -253 141 -401 141c-308 0 -543 -267 -543 -623c0 -229 136 -368 361 -368c135 0 281 47 469 151z" />
    <glyph glyph-name="Cacute" unicode="&#x106;" horiz-adv-x="1503" 
d="M928 1635l246 264h280l-319 -264h-207zM1307 401l-66 -331c-184 -65 -354 -99 -506 -99c-401 0 -661 239 -661 602c0 239 77 452 225 627c175 205 429 320 713 320c155 0 310 -36 471 -111l-62 -309c-128 97 -253 141 -401 141c-308 0 -543 -267 -543 -623
c0 -229 136 -368 361 -368c135 0 281 47 469 151z" />
    <glyph glyph-name="Ccaron" unicode="&#x10c;" horiz-adv-x="1503" 
d="M1499 1899l-243 -264h-349l-137 264h172l148 -162l231 162h178zM1307 401l-66 -331c-184 -65 -354 -99 -506 -99c-401 0 -661 239 -661 602c0 239 77 452 225 627c175 205 429 320 713 320c155 0 310 -36 471 -111l-62 -309c-128 97 -253 141 -401 141
c-308 0 -543 -267 -543 -623c0 -229 136 -368 361 -368c135 0 281 47 469 151z" />
    <glyph glyph-name="Ccedilla" unicode="&#xc7;" horiz-adv-x="1503" 
d="M1020 1241c-308 0 -543 -267 -543 -623c0 -229 136 -368 361 -368c135 0 281 47 469 151l-66 -331c-128 -45 -249 -75 -363 -90c40 -60 58 -111 58 -162c0 -139 -105 -219 -288 -219c-65 0 -129 9 -197 26l29 156c53 -23 108 -35 159 -35c88 0 142 41 142 104
c0 30 -13 65 -42 121h-4c-401 0 -661 239 -661 602c0 239 77 452 225 627c175 205 429 320 713 320c155 0 310 -36 471 -111l-62 -309c-128 97 -253 141 -401 141z" />
    <glyph glyph-name="D" unicode="D" horiz-adv-x="1700" 
d="M43 0l291 1493h405c387 0 548 -42 676 -150c129 -108 195 -263 195 -458c0 -271 -117 -521 -318 -684c-176 -145 -360 -201 -843 -201h-406zM799 1202h-135l-179 -911h138c359 0 583 216 583 559c0 232 -138 352 -407 352z" />
    <glyph glyph-name="Eth" unicode="&#xd0;" horiz-adv-x="1731" 
d="M252 903l115 590h405c387 0 548 -42 676 -150c129 -108 197 -265 197 -458c0 -268 -119 -520 -320 -684c-176 -145 -360 -201 -844 -201h-405l125 643h-205l51 260h205zM831 1202h-135l-57 -299h246l-51 -260h-246l-70 -352h137c361 0 586 218 586 559
c0 232 -139 352 -410 352z" />
    <glyph glyph-name="Dcaron" unicode="&#x10e;" horiz-adv-x="1229" 
d="M1126 -362h-1024v1806h1024v-1806zM217 1329v-1577h795v1577h-795z" />
    <glyph glyph-name="E" unicode="E" horiz-adv-x="1399" 
d="M43 0l291 1493h1038l-57 -291h-653l-54 -278h615l-58 -291h-614l-66 -342h674l-55 -291h-1061z" />
    <glyph glyph-name="Eacute" unicode="&#xc9;" horiz-adv-x="1399" 
d="M748 1635l246 264h280l-319 -264h-207zM43 0l291 1493h1038l-57 -291h-653l-54 -278h615l-58 -291h-614l-66 -342h674l-55 -291h-1061z" />
    <glyph glyph-name="Ecircumflex" unicode="&#xca;" horiz-adv-x="1399" 
d="M514 1635l244 264h348l152 -264h-170l-164 161l-231 -161h-179zM43 0l291 1493h1038l-57 -291h-653l-54 -278h615l-58 -291h-614l-66 -342h674l-55 -291h-1061z" />
    <glyph glyph-name="Edieresis" unicode="&#xcb;" horiz-adv-x="1399" 
d="M865 1899l-47 -246h-236l47 246h236zM1262 1899l-49 -246h-236l47 246h238zM1315 1202h-653l-54 -278h615l-58 -291h-614l-66 -342h674l-55 -291h-1061l291 1493h1038z" />
    <glyph glyph-name="Egrave" unicode="&#xc8;" horiz-adv-x="1399" 
d="M635 1899h264l144 -264h-178zM43 0l291 1493h1038l-57 -291h-653l-54 -278h615l-58 -291h-614l-66 -342h674l-55 -291h-1061z" />
    <glyph glyph-name="F" unicode="F" horiz-adv-x="1399" 
d="M43 0l291 1493h1038l-57 -291h-653l-54 -278h615l-58 -291h-614l-123 -633h-385z" />
    <glyph glyph-name="G" unicode="G" horiz-adv-x="1681" 
d="M1534 829l-139 -718c-195 -95 -400 -140 -639 -140c-424 0 -682 230 -682 602c0 241 76 454 227 629c184 213 433 318 754 318c179 0 362 -38 538 -111l-59 -309c-163 95 -316 141 -473 141c-344 0 -582 -254 -582 -614c0 -239 132 -377 361 -377c75 0 149 10 225 31
l57 290h-235l49 258h598z" />
    <glyph glyph-name="Gbreve" unicode="&#x11e;" horiz-adv-x="1681" 
d="M721 1895v4h143c13 -80 65 -115 170 -115c96 0 170 43 201 115h153c-52 -172 -188 -264 -385 -264c-181 0 -282 93 -282 260zM1534 829l-139 -718c-195 -95 -400 -140 -639 -140c-424 0 -682 230 -682 602c0 241 76 454 227 629c184 213 433 318 754 318
c179 0 362 -38 538 -111l-59 -309c-163 95 -316 141 -473 141c-344 0 -582 -254 -582 -614c0 -239 132 -377 361 -377c75 0 149 10 225 31l57 290h-235l49 258h598z" />
    <glyph glyph-name="H" unicode="H" horiz-adv-x="1714" 
d="M43 0l291 1493h385l-111 -569h568l110 569h385l-291 -1493h-385l123 633h-567l-123 -633h-385z" />
    <glyph glyph-name="I" unicode="I" horiz-adv-x="762" 
d="M43 0l291 1493h385l-291 -1493h-385z" />
    <glyph glyph-name="Iacute" unicode="&#xcd;" horiz-adv-x="762" 
d="M391 1635l246 264h280l-319 -264h-207zM43 0l291 1493h385l-291 -1493h-385z" />
    <glyph glyph-name="Icircumflex" unicode="&#xce;" horiz-adv-x="762" 
d="M157 1635l244 264h348l152 -264h-170l-164 161l-231 -161h-179zM43 0l291 1493h385l-291 -1493h-385z" />
    <glyph glyph-name="Idieresis" unicode="&#xcf;" horiz-adv-x="762" 
d="M508 1899l-47 -246h-236l47 246h236zM667 1899h238l-49 -246h-236zM43 0l291 1493h385l-291 -1493h-385z" />
    <glyph glyph-name="Idotaccent" unicode="&#x130;" horiz-adv-x="762" 
d="M405 1653l47 246h275l-47 -246h-275zM43 0l291 1493h385l-291 -1493h-385z" />
    <glyph glyph-name="Igrave" unicode="&#xcc;" horiz-adv-x="762" 
d="M278 1899h264l144 -264h-178zM43 0l291 1493h385l-291 -1493h-385z" />
    <glyph glyph-name="J" unicode="J" horiz-adv-x="762" 
d="M72 145l262 1348h385l-262 -1348c-77 -389 -290 -555 -719 -555h-78l57 291h60c159 0 262 92 295 264z" />
    <glyph glyph-name="K" unicode="K" horiz-adv-x="1587" 
d="M43 0l291 1493h385l-105 -537l635 537h465l-856 -725l645 -768h-452l-502 623l-121 -623h-385z" />
    <glyph glyph-name="L" unicode="L" horiz-adv-x="1305" 
d="M43 0l291 1493h385l-234 -1202h674l-55 -291h-1061z" />
    <glyph glyph-name="Lslash" unicode="&#x141;" horiz-adv-x="1352" 
d="M270 778l140 715h385l-101 -516l340 151l105 -210l-500 -220l-78 -407h674l-55 -291h-1061l98 502l-160 -74l-104 215z" />
    <glyph glyph-name="M" unicode="M" horiz-adv-x="2038" 
d="M43 0l291 1493h473l192 -793l504 793h492l-291 -1493h-365l213 1102l-518 -815h-207l-206 815l-213 -1102h-365z" />
    <glyph glyph-name="N" unicode="N" horiz-adv-x="1714" 
d="M43 0l291 1493h430l342 -1034l201 1034h364l-291 -1493h-430l-342 1034l-200 -1034h-365z" />
    <glyph glyph-name="Ntilde" unicode="&#xd1;" horiz-adv-x="1714" 
d="M991 1686l-49 37c-32 25 -51 32 -75 32c-48 0 -84 -45 -99 -120h-137c35 171 125 266 252 266c49 0 90 -15 137 -51l53 -41c21 -17 47 -27 68 -27c52 0 89 42 102 119h138c-35 -171 -126 -266 -250 -266c-51 0 -89 12 -140 51zM43 0l291 1493h430l342 -1034l201 1034h364
l-291 -1493h-430l-342 1034l-200 -1034h-365z" />
    <glyph glyph-name="O" unicode="O" horiz-adv-x="1741" 
d="M1006 1520c397 0 661 -242 661 -598c0 -243 -76 -463 -217 -635c-173 -212 -408 -316 -717 -316c-396 0 -659 241 -659 598c0 244 74 464 217 637c171 211 406 314 715 314zM1260 881c0 235 -109 360 -310 360c-267 0 -471 -269 -471 -629c0 -229 111 -362 299 -362
c153 0 273 65 357 192c80 121 125 279 125 439z" />
    <glyph glyph-name="Oacute" unicode="&#xd3;" horiz-adv-x="1741" 
d="M909 1635l246 264h280l-319 -264h-207zM1006 1520c397 0 661 -242 661 -598c0 -243 -76 -463 -217 -635c-173 -212 -408 -316 -717 -316c-396 0 -659 241 -659 598c0 244 74 464 217 637c171 211 406 314 715 314zM1260 881c0 235 -109 360 -310 360
c-267 0 -471 -269 -471 -629c0 -229 111 -362 299 -362c153 0 273 65 357 192c80 121 125 279 125 439z" />
    <glyph glyph-name="Ocircumflex" unicode="&#xd4;" horiz-adv-x="1741" 
d="M675 1635l244 264h348l152 -264h-170l-164 161l-231 -161h-179zM1006 1520c397 0 661 -242 661 -598c0 -243 -76 -463 -217 -635c-173 -212 -408 -316 -717 -316c-396 0 -659 241 -659 598c0 244 74 464 217 637c171 211 406 314 715 314zM1260 881
c0 235 -109 360 -310 360c-267 0 -471 -269 -471 -629c0 -229 111 -362 299 -362c153 0 273 65 357 192c80 121 125 279 125 439z" />
    <glyph glyph-name="Odieresis" unicode="&#xd6;" horiz-adv-x="1741" 
d="M1026 1899l-47 -246h-236l47 246h236zM1423 1899l-49 -246h-236l47 246h238zM1006 1520c397 0 661 -242 661 -598c0 -243 -76 -463 -217 -635c-173 -212 -408 -316 -717 -316c-396 0 -659 241 -659 598c0 244 74 464 217 637c171 211 406 314 715 314zM1135 442
c80 121 125 279 125 439c0 235 -109 360 -310 360c-267 0 -471 -269 -471 -629c0 -229 111 -362 299 -362c153 0 273 65 357 192z" />
    <glyph glyph-name="Ograve" unicode="&#xd2;" horiz-adv-x="1741" 
d="M796 1899h264l144 -264h-178zM1006 1520c397 0 661 -242 661 -598c0 -243 -76 -463 -217 -635c-173 -212 -408 -316 -717 -316c-396 0 -659 241 -659 598c0 244 74 464 217 637c171 211 406 314 715 314zM1260 881c0 235 -109 360 -310 360c-267 0 -471 -269 -471 -629
c0 -229 111 -362 299 -362c153 0 273 65 357 192c80 121 125 279 125 439z" />
    <glyph glyph-name="Oslash" unicode="&#xd8;" horiz-adv-x="1741" 
d="M-96 45l254 213c-56 99 -84 204 -84 311c0 244 74 464 217 637c172 212 404 314 715 314c197 0 352 -52 469 -156l258 215l102 -123l-258 -213c60 -101 90 -210 90 -323c0 -243 -76 -463 -217 -635c-173 -211 -409 -314 -717 -314c-196 0 -352 55 -475 164l-252 -213z
M485 532l711 596c-53 76 -135 113 -244 113c-269 0 -471 -266 -471 -629c0 -15 1 -39 4 -74v-6zM1253 969l-714 -598c52 -79 135 -121 239 -121c153 0 273 65 357 192c80 123 127 282 127 437c0 17 -2 43 -7 78c-1 5 -1 9 -2 12z" />
    <glyph glyph-name="Otilde" unicode="&#xd5;" horiz-adv-x="1741" 
d="M1062 1686l-49 37c-32 25 -51 32 -75 32c-48 0 -84 -45 -99 -120h-137c35 171 125 266 252 266c49 0 90 -15 137 -51l53 -41c21 -17 47 -27 68 -27c52 0 89 42 102 119h138c-35 -171 -126 -266 -250 -266c-51 0 -89 12 -140 51zM1006 1520c397 0 661 -242 661 -598
c0 -243 -76 -463 -217 -635c-173 -212 -408 -316 -717 -316c-396 0 -659 241 -659 598c0 244 74 464 217 637c171 211 406 314 715 314zM1260 881c0 235 -109 360 -310 360c-267 0 -471 -269 -471 -629c0 -229 111 -362 299 -362c153 0 273 65 357 192
c80 121 125 279 125 439z" />
    <glyph glyph-name="OE" unicode="&#x152;" horiz-adv-x="2390" 
d="M1178 1493h1185l-57 -291h-651l-56 -278h615l-57 -291h-615l-65 -342h675l-57 -291h-1214c-505 0 -795 211 -795 575c0 323 167 612 444 775c171 97 375 143 648 143zM1092 291l176 911h-105c-187 0 -323 -31 -424 -96c-151 -99 -250 -279 -250 -459
c0 -244 156 -356 496 -356h107z" />
    <glyph glyph-name="P" unicode="P" horiz-adv-x="1501" 
d="M43 0l291 1493h639c313 0 500 -151 500 -406c0 -156 -61 -302 -170 -407c-119 -113 -273 -162 -521 -162h-254l-100 -518h-385zM877 1214h-211l-82 -417h213c181 0 280 87 280 250c0 108 -71 167 -200 167z" />
    <glyph glyph-name="Thorn" unicode="&#xde;" horiz-adv-x="1520" 
d="M43 0l291 1493h385l-43 -223h246c313 0 501 -151 501 -406c0 -156 -59 -300 -170 -405c-119 -115 -277 -164 -522 -164h-246l-57 -295h-385zM827 993h-206l-80 -420h204c181 0 281 89 281 252c0 109 -68 168 -199 168z" />
    <glyph glyph-name="Q" unicode="Q" horiz-adv-x="1741" 
d="M952 -299l-192 272c-15 -1 -25 -2 -58 -2c-151 0 -286 42 -395 123c-147 108 -233 284 -233 475c0 244 76 465 217 637c172 212 404 314 715 314c397 0 661 -242 661 -598c0 -419 -214 -751 -577 -895l229 -326h-367zM1260 881c0 235 -109 360 -310 360
c-267 0 -471 -269 -471 -629c0 -229 111 -362 299 -362c153 0 273 65 357 192c80 121 125 279 125 439z" />
    <glyph glyph-name="R" unicode="R" horiz-adv-x="1577" 
d="M662 565h-123l-111 -565h-385l291 1493h569c328 0 500 -124 500 -363c0 -241 -143 -409 -371 -432c104 -21 169 -99 221 -274l127 -424h-383l-112 371c-45 148 -100 194 -223 194zM590 831h162c175 0 266 83 266 240c0 99 -60 143 -193 143h-159z" />
    <glyph glyph-name="S" unicode="S" horiz-adv-x="1475" 
d="M1362 1446l-62 -316c-151 75 -298 111 -438 111c-192 0 -305 -63 -305 -170c0 -34 12 -60 36 -79c23 -19 72 -38 146 -56l158 -39c264 -67 383 -189 383 -389c0 -324 -265 -537 -680 -537c-193 0 -386 36 -569 107l61 325c177 -103 343 -153 506 -153
c176 0 297 80 297 192c0 37 -12 65 -37 86c-25 20 -79 41 -162 62l-157 39c-232 57 -344 180 -344 377c0 311 256 514 659 514c161 0 332 -25 508 -74z" />
    <glyph glyph-name="Scaron" unicode="&#x160;" horiz-adv-x="1475" 
d="M1319 1899l-243 -264h-349l-137 264h172l148 -162l231 162h178zM1362 1446l-62 -316c-151 75 -298 111 -438 111c-192 0 -305 -63 -305 -170c0 -34 12 -60 36 -79c23 -19 72 -38 146 -56l158 -39c264 -67 383 -189 383 -389c0 -324 -265 -537 -680 -537
c-193 0 -386 36 -569 107l61 325c177 -103 343 -153 506 -153c176 0 297 80 297 192c0 37 -12 65 -37 86c-25 20 -79 41 -162 62l-157 39c-232 57 -344 180 -344 377c0 311 256 514 659 514c161 0 332 -25 508 -74z" />
    <glyph glyph-name="Scedilla" unicode="&#x15e;" horiz-adv-x="1475" 
d="M862 1241c-192 0 -305 -63 -305 -170c0 -34 12 -60 36 -79c23 -19 72 -38 146 -56l158 -39c264 -67 383 -189 383 -389c0 -297 -223 -501 -579 -533c37 -58 54 -108 54 -157c0 -139 -105 -219 -288 -219c-65 0 -129 9 -197 26l29 156c53 -23 108 -35 159 -35
c88 0 142 41 142 104c0 30 -13 66 -42 122c-179 4 -357 40 -527 106l61 325c177 -103 343 -153 506 -153c176 0 297 80 297 192c0 37 -12 65 -37 86c-25 20 -79 41 -162 62l-157 39c-232 57 -344 180 -344 377c0 311 256 514 659 514c161 0 332 -25 508 -74l-62 -316
c-151 75 -298 111 -438 111z" />
    <glyph glyph-name="T" unicode="T" horiz-adv-x="1397" 
d="M98 1202l58 291h1376l-57 -291h-496l-234 -1202h-385l234 1202h-496z" />
    <glyph glyph-name="U" unicode="U" horiz-adv-x="1663" 
d="M160 598l174 895h385l-174 -894c-13 -64 -19 -113 -19 -150c0 -131 70 -195 209 -195c187 0 278 95 326 344l174 895h385l-174 -895c-87 -440 -315 -627 -766 -627c-353 0 -541 155 -541 443c0 48 6 105 21 184z" />
    <glyph glyph-name="Uacute" unicode="&#xda;" horiz-adv-x="1663" 
d="M830 1635l246 264h280l-319 -264h-207zM160 598l174 895h385l-174 -894c-13 -64 -19 -113 -19 -150c0 -131 70 -195 209 -195c187 0 278 95 326 344l174 895h385l-174 -895c-87 -440 -315 -627 -766 -627c-353 0 -541 155 -541 443c0 48 6 105 21 184z" />
    <glyph glyph-name="Ucircumflex" unicode="&#xdb;" horiz-adv-x="1663" 
d="M596 1635l244 264h348l152 -264h-170l-164 161l-231 -161h-179zM160 598l174 895h385l-174 -894c-13 -64 -19 -113 -19 -150c0 -131 70 -195 209 -195c187 0 278 95 326 344l174 895h385l-174 -895c-87 -440 -315 -627 -766 -627c-353 0 -541 155 -541 443
c0 48 6 105 21 184z" />
    <glyph glyph-name="Udieresis" unicode="&#xdc;" horiz-adv-x="1663" 
d="M947 1899l-47 -246h-236l47 246h236zM1344 1899l-49 -246h-236l47 246h238zM1235 1493h385l-174 -895c-87 -440 -315 -627 -766 -627c-353 0 -541 155 -541 443c0 48 6 105 21 184l174 895h385l-174 -894c-13 -64 -19 -113 -19 -150c0 -131 70 -195 209 -195
c187 0 278 95 326 344z" />
    <glyph glyph-name="Ugrave" unicode="&#xd9;" horiz-adv-x="1663" 
d="M717 1899h264l144 -264h-178zM160 598l174 895h385l-174 -894c-13 -64 -19 -113 -19 -150c0 -131 70 -195 209 -195c187 0 278 95 326 344l174 895h385l-174 -895c-87 -440 -315 -627 -766 -627c-353 0 -541 155 -541 443c0 48 6 105 21 184z" />
    <glyph glyph-name="V" unicode="V" horiz-adv-x="1585" 
d="M418 0l-262 1493h366l183 -1116l618 1116h397l-843 -1493h-459z" />
    <glyph glyph-name="W" unicode="W" horiz-adv-x="2259" 
d="M283 0l-64 1493h356l46 -1085l469 1085h366l49 -1085l453 1085h383l-643 -1493h-436l-50 1135l-483 -1135h-446z" />
    <glyph glyph-name="X" unicode="X" horiz-adv-x="1579" 
d="M1663 1493l-647 -737l366 -756h-391l-243 500l-437 -500h-415l671 766l-354 727h393l230 -469l409 469h418z" />
    <glyph glyph-name="Y" unicode="Y" horiz-adv-x="1483" 
d="M535 623l-406 870h385l254 -553l444 553h445l-737 -870l-121 -623h-385z" />
    <glyph glyph-name="Yacute" unicode="&#xdd;" horiz-adv-x="1483" 
d="M752 1635l246 264h280l-319 -264h-207zM535 623l-406 870h385l254 -553l444 553h445l-737 -870l-121 -623h-385z" />
    <glyph glyph-name="Ydieresis" unicode="&#x178;" horiz-adv-x="1483" 
d="M869 1899l-47 -246h-236l47 246h236zM1266 1899l-49 -246h-236l47 246h238zM1212 1493h445l-737 -870l-121 -623h-385l121 623l-406 870h385l254 -553z" />
    <glyph glyph-name="Z" unicode="Z" horiz-adv-x="1485" 
d="M203 1202l57 291h1256l-48 -238l-968 -964h805l-58 -291h-1300l45 238l971 964h-760z" />
    <glyph glyph-name="Zcaron" unicode="&#x17d;" horiz-adv-x="1485" 
d="M1325 1899l-243 -264h-349l-137 264h172l148 -162l231 162h178zM203 1202l57 291h1256l-48 -238l-968 -964h805l-58 -291h-1300l45 238l971 964h-760z" />
    <glyph glyph-name="a" unicode="a" horiz-adv-x="1382" 
d="M1233 639l-125 -639h-358l30 166c-117 -133 -246 -195 -399 -195c-212 0 -346 118 -346 305c0 285 227 441 643 441h211l4 28l4 20v11c0 88 -84 133 -248 133c-148 0 -287 -31 -416 -92l54 273c149 37 305 57 473 57c332 0 491 -113 491 -346c0 -45 -6 -99 -18 -162z
M846 504h-172c-179 0 -271 -56 -271 -164c0 -81 57 -131 152 -131c147 0 250 93 283 254z" />
    <glyph glyph-name="aacute" unicode="&#xe1;" horiz-adv-x="1382" 
d="M645 1262l346 376h293l-438 -376h-201zM1233 639l-125 -639h-358l30 166c-117 -133 -246 -195 -399 -195c-212 0 -346 118 -346 305c0 285 227 441 643 441h211l4 28l4 20v11c0 88 -84 133 -248 133c-148 0 -287 -31 -416 -92l54 273c149 37 305 57 473 57
c332 0 491 -113 491 -346c0 -45 -6 -99 -18 -162zM846 504h-172c-179 0 -271 -56 -271 -164c0 -81 57 -131 152 -131c147 0 250 93 283 254z" />
    <glyph glyph-name="acircumflex" unicode="&#xe2;" horiz-adv-x="1382" 
d="M397 1262l328 376h262l182 -376h-178l-156 225l-241 -225h-197zM1233 639l-125 -639h-358l30 166c-117 -133 -246 -195 -399 -195c-212 0 -346 118 -346 305c0 285 227 441 643 441h211l4 28l4 20v11c0 88 -84 133 -248 133c-148 0 -287 -31 -416 -92l54 273
c149 37 305 57 473 57c332 0 491 -113 491 -346c0 -45 -6 -99 -18 -162zM846 504h-172c-179 0 -271 -56 -271 -164c0 -81 57 -131 152 -131c147 0 250 93 283 254z" />
    <glyph glyph-name="adieresis" unicode="&#xe4;" horiz-adv-x="1382" 
d="M392 1338l39 246h201l-42 -246h-198zM704 1338l39 246h201l-42 -246h-198zM1011 1337l39 246h201l-42 -246h-198zM1233 639l-125 -639h-358l30 166c-117 -133 -246 -195 -399 -195c-212 0 -346 118 -346 305c0 285 227 441 643 441h211l4 28l4 20v11
c0 88 -84 133 -248 133c-148 0 -287 -31 -416 -92l54 273c149 37 305 57 473 57c332 0 491 -113 491 -346c0 -45 -6 -99 -18 -162zM846 504h-172c-179 0 -271 -56 -271 -164c0 -81 57 -131 152 -131c147 0 250 93 283 254z" />
    <glyph glyph-name="agrave" unicode="&#xe0;" horiz-adv-x="1382" 
d="M448 1638h283l209 -376h-197zM1233 639l-125 -639h-358l30 166c-117 -133 -246 -195 -399 -195c-212 0 -346 118 -346 305c0 285 227 441 643 441h211l4 28l4 20v11c0 88 -84 133 -248 133c-148 0 -287 -31 -416 -92l54 273c149 37 305 57 473 57
c332 0 491 -113 491 -346c0 -45 -6 -99 -18 -162zM846 504h-172c-179 0 -271 -56 -271 -164c0 -81 57 -131 152 -131c147 0 250 93 283 254z" />
    <glyph glyph-name="aring" unicode="&#xe5;" horiz-adv-x="1382" 
d="M1126 1524c0 -160 -125 -285 -284 -285c-160 0 -285 125 -285 285s125 284 285 284c159 0 284 -124 284 -284zM991 1524c0 87 -62 149 -149 149c-88 0 -150 -62 -150 -149s63 -150 150 -150s149 62 149 150zM1233 639l-125 -639h-358l30 166
c-117 -133 -246 -195 -399 -195c-212 0 -346 118 -346 305c0 285 227 441 643 441h211l4 28l4 20v11c0 88 -84 133 -248 133c-148 0 -287 -31 -416 -92l54 273c149 37 305 57 473 57c332 0 491 -113 491 -346c0 -45 -6 -99 -18 -162zM846 504h-172
c-179 0 -271 -56 -271 -164c0 -81 57 -131 152 -131c147 0 250 93 283 254z" />
    <glyph glyph-name="atilde" unicode="&#xe3;" horiz-adv-x="1382" 
d="M815 1364l-49 37c-2 1 -5 4 -10 7c-25 20 -48 30 -68 30c-45 0 -83 -49 -96 -129h-140c36 183 127 284 252 284c48 0 91 -17 140 -57l53 -43c24 -20 47 -31 67 -31c51 0 86 46 101 129h139c-35 -181 -125 -284 -250 -284c-45 0 -79 12 -139 57zM1233 639l-125 -639h-358
l30 166c-117 -133 -246 -195 -399 -195c-212 0 -346 118 -346 305c0 285 227 441 643 441h211l4 28l4 20v11c0 88 -84 133 -248 133c-148 0 -287 -31 -416 -92l54 273c149 37 305 57 473 57c332 0 491 -113 491 -346c0 -45 -6 -99 -18 -162zM846 504h-172
c-179 0 -271 -56 -271 -164c0 -81 57 -131 152 -131c147 0 250 93 283 254z" />
    <glyph glyph-name="ae" unicode="&#xe6;" horiz-adv-x="2146" 
d="M238 817l53 273c156 37 305 57 444 57c199 0 326 -47 402 -150c127 103 265 150 438 150c297 0 489 -177 489 -445c0 -60 -7 -121 -20 -184l-14 -57h-836c0 -4 0 -10 -1 -17c-1 -8 -1 -14 -1 -18c0 -145 87 -217 262 -217c149 0 315 44 500 135l-53 -278
c-175 -64 -347 -95 -527 -95c-231 0 -387 68 -475 207c-156 -140 -318 -207 -502 -207c-227 0 -362 115 -362 303c0 288 226 443 647 443h205l6 29l4 19v11c0 88 -84 133 -244 133c-152 0 -290 -31 -415 -92zM1243 682h463c4 17 6 36 6 53c0 107 -70 174 -178 174
c-140 0 -242 -79 -291 -227zM846 504h-172c-179 0 -271 -56 -271 -164c0 -81 57 -131 152 -131c147 0 250 93 283 254z" />
    <glyph glyph-name="b" unicode="b" horiz-adv-x="1466" 
d="M455 162l-33 -162h-359l302 1556h360l-117 -600c109 131 226 191 369 191c252 0 409 -171 409 -447c0 -172 -53 -340 -149 -473c-121 -168 -276 -256 -451 -256c-153 0 -258 60 -331 191zM831 887c-184 0 -313 -187 -313 -459c0 -123 70 -197 187 -197
c180 0 311 186 311 447c0 136 -65 209 -185 209z" />
    <glyph glyph-name="c" unicode="c" horiz-adv-x="1214" 
d="M1190 1085l-57 -292c-96 64 -190 98 -279 98c-233 0 -397 -174 -397 -418c0 -156 96 -246 264 -246c112 0 222 34 319 99l-55 -293c-119 -41 -239 -62 -360 -62c-352 0 -549 164 -549 455c0 183 72 361 203 498c145 151 330 223 575 223c113 0 225 -21 336 -62z" />
    <glyph glyph-name="cacute" unicode="&#x107;" horiz-adv-x="1214" 
d="M682 1262l346 376h293l-438 -376h-201zM1190 1085l-57 -292c-96 64 -190 98 -279 98c-233 0 -397 -174 -397 -418c0 -156 96 -246 264 -246c112 0 222 34 319 99l-55 -293c-119 -41 -239 -62 -360 -62c-352 0 -549 164 -549 455c0 183 72 361 203 498
c145 151 330 223 575 223c113 0 225 -21 336 -62z" />
    <glyph glyph-name="ccaron" unicode="&#x10d;" horiz-adv-x="1214" 
d="M1298 1638l-329 -376h-260l-183 376h176l156 -227l244 227h196zM1190 1085l-57 -292c-96 64 -190 98 -279 98c-233 0 -397 -174 -397 -418c0 -156 96 -246 264 -246c112 0 222 34 319 99l-55 -293c-119 -41 -239 -62 -360 -62c-352 0 -549 164 -549 455
c0 183 72 361 203 498c145 151 330 223 575 223c113 0 225 -21 336 -62z" />
    <glyph glyph-name="ccedilla" unicode="&#xe7;" horiz-adv-x="1214" 
d="M854 891c-233 0 -397 -174 -397 -418c0 -156 96 -246 264 -246c112 0 222 34 319 99l-55 -293c-92 -32 -184 -51 -278 -59c37 -57 54 -107 54 -156c0 -139 -105 -219 -288 -219c-65 0 -129 9 -197 26l29 156c53 -23 108 -35 159 -35c88 0 142 41 142 104
c0 30 -13 66 -43 123c-313 18 -487 180 -487 453c0 183 72 361 203 498c145 151 330 223 575 223c113 0 225 -21 336 -62l-57 -292c-96 64 -190 98 -279 98z" />
    <glyph glyph-name="d" unicode="d" horiz-adv-x="1466" 
d="M1006 956l116 600h361l-303 -1556h-361l33 162c-109 -131 -226 -191 -369 -191c-252 0 -409 171 -409 447c0 172 53 340 149 473c121 168 276 256 451 256c153 0 257 -60 332 -191zM629 231c184 0 311 186 311 459c0 124 -68 197 -184 197c-181 0 -312 -186 -312 -447
c0 -136 65 -209 185 -209z" />
    <glyph glyph-name="eth" unicode="&#xf0;" horiz-adv-x="1407" 
d="M1049 1325l155 -225c85 -123 129 -265 129 -420c0 -173 -62 -340 -178 -473c-135 -155 -323 -236 -551 -236c-321 0 -530 182 -530 455c0 373 266 629 657 629c65 0 124 -10 172 -27l-151 215l-385 -108l-35 129l340 94l-137 198h352l82 -116l385 106l35 -127zM958 743
c-69 36 -137 54 -206 54c-187 0 -303 -135 -303 -346c0 -145 69 -224 194 -224c187 0 320 187 320 451c0 9 -1 26 -4 53c0 5 0 9 -1 12z" />
    <glyph glyph-name="dcroat" unicode="&#x111;" horiz-adv-x="1466" 
d="M1006 956l57 295h-395l37 189h395l22 116h361l-23 -116h213l-37 -189h-213l-243 -1251h-361l33 162c-109 -131 -226 -191 -369 -191c-252 0 -409 171 -409 447c0 172 53 340 149 473c121 168 276 256 451 256c153 0 257 -60 332 -191zM629 231c184 0 311 186 311 459
c0 124 -68 197 -184 197c-181 0 -312 -186 -312 -447c0 -136 65 -209 185 -209z" />
    <glyph glyph-name="e" unicode="e" horiz-adv-x="1389" 
d="M1288 518l-12 -57h-838c0 -4 0 -10 -1 -17c-1 -8 -1 -14 -1 -18c0 -145 87 -217 262 -217c151 0 318 46 502 135l-55 -278c-175 -64 -345 -95 -524 -95c-349 0 -547 168 -547 463c0 171 62 336 178 469c137 160 332 244 565 244c303 0 494 -174 494 -447
c0 -53 -7 -111 -23 -182zM487 682h463c4 17 6 36 6 53c0 107 -69 174 -178 174c-140 0 -239 -78 -291 -227z" />
    <glyph glyph-name="eacute" unicode="&#xe9;" horiz-adv-x="1389" 
d="M692 1262l346 376h293l-438 -376h-201zM1288 518l-12 -57h-838c0 -4 0 -10 -1 -17c-1 -8 -1 -14 -1 -18c0 -145 87 -217 262 -217c151 0 318 46 502 135l-55 -278c-175 -64 -345 -95 -524 -95c-349 0 -547 168 -547 463c0 171 62 336 178 469c137 160 332 244 565 244
c303 0 494 -174 494 -447c0 -53 -7 -111 -23 -182zM487 682h463c4 17 6 36 6 53c0 107 -69 174 -178 174c-140 0 -239 -78 -291 -227z" />
    <glyph glyph-name="ecircumflex" unicode="&#xea;" horiz-adv-x="1389" 
d="M444 1262l328 376h262l182 -376h-178l-156 225l-241 -225h-197zM1288 518l-12 -57h-838c0 -4 0 -10 -1 -17c-1 -8 -1 -14 -1 -18c0 -145 87 -217 262 -217c151 0 318 46 502 135l-55 -278c-175 -64 -345 -95 -524 -95c-349 0 -547 168 -547 463c0 171 62 336 178 469
c137 160 332 244 565 244c303 0 494 -174 494 -447c0 -53 -7 -111 -23 -182zM487 682h463c4 17 6 36 6 53c0 107 -69 174 -178 174c-140 0 -239 -78 -291 -227z" />
    <glyph glyph-name="edieresis" unicode="&#xeb;" horiz-adv-x="1389" 
d="M538 1339l47 246h238l-49 -246h-236zM934 1339l49 246h235l-49 -246h-235zM1288 518l-12 -57h-838c0 -4 0 -10 -1 -17c-1 -8 -1 -14 -1 -18c0 -145 87 -217 262 -217c151 0 318 46 502 135l-55 -278c-175 -64 -345 -95 -524 -95c-349 0 -547 168 -547 463
c0 171 62 336 178 469c137 160 332 244 565 244c303 0 494 -174 494 -447c0 -53 -7 -111 -23 -182zM487 682h463c4 17 6 36 6 53c0 107 -69 174 -178 174c-140 0 -239 -78 -291 -227z" />
    <glyph glyph-name="egrave" unicode="&#xe8;" horiz-adv-x="1389" 
d="M495 1638h283l209 -376h-197zM1288 518l-12 -57h-838c0 -4 0 -10 -1 -17c-1 -8 -1 -14 -1 -18c0 -145 87 -217 262 -217c151 0 318 46 502 135l-55 -278c-175 -64 -345 -95 -524 -95c-349 0 -547 168 -547 463c0 171 62 336 178 469c137 160 332 244 565 244
c303 0 494 -174 494 -447c0 -53 -7 -111 -23 -182zM487 682h463c4 17 6 36 6 53c0 107 -69 174 -178 174c-140 0 -239 -78 -291 -227z" />
    <glyph glyph-name="f" unicode="f" horiz-adv-x="891" 
d="M831 1556h275l-47 -235h-197c-100 0 -140 -33 -157 -122l-17 -79h303l-49 -256h-303l-168 -864h-360l168 864h-177l50 256h176l16 78c49 248 199 358 487 358z" />
    <glyph glyph-name="g" unicode="g" horiz-adv-x="1466" 
d="M840 113l16 77c-115 -131 -229 -190 -369 -190c-253 0 -411 174 -411 457c0 151 53 307 149 440c117 161 272 248 447 248c157 0 261 -59 334 -191l30 166h361l-189 -973c-77 -401 -325 -589 -776 -589c-139 0 -266 21 -391 65l53 279c113 -72 225 -107 344 -107
c237 0 358 97 402 318zM756 887c-176 0 -307 -178 -307 -418c0 -136 64 -209 184 -209c175 0 307 178 307 414c0 139 -64 213 -184 213z" />
    <glyph glyph-name="gbreve" unicode="&#x11f;" horiz-adv-x="1466" 
d="M564 1606h142v-9c0 -87 59 -135 166 -135c108 0 176 47 213 144h152c-45 -191 -187 -297 -395 -297c-187 0 -281 84 -281 245c0 28 0 39 3 52zM840 113l16 77c-115 -131 -229 -190 -369 -190c-253 0 -411 174 -411 457c0 151 53 307 149 440c117 161 272 248 447 248
c157 0 261 -59 334 -191l30 166h361l-189 -973c-77 -401 -325 -589 -776 -589c-139 0 -266 21 -391 65l53 279c113 -72 225 -107 344 -107c237 0 358 97 402 318zM756 887c-176 0 -307 -178 -307 -418c0 -136 64 -209 184 -209c175 0 307 178 307 414
c0 139 -64 213 -184 213z" />
    <glyph glyph-name="h" unicode="h" horiz-adv-x="1458" 
d="M1321 682l-133 -682h-359l113 584c16 76 25 128 25 159c0 85 -49 134 -136 134c-148 0 -260 -122 -301 -326l-108 -551h-359l302 1556h360l-117 -600c132 129 263 191 408 191c207 0 323 -113 323 -309c0 -43 -6 -95 -18 -156z" />
    <glyph glyph-name="i" unicode="i" horiz-adv-x="702" 
d="M307 1264l58 292h360l-57 -292h-361zM63 0l218 1120h360l-219 -1120h-359z" />
    <glyph glyph-name="dotlessi" unicode="&#x131;" horiz-adv-x="702" 
d="M63 0l218 1120h360l-219 -1120h-359z" />
    <glyph glyph-name="iacute" unicode="&#xed;" horiz-adv-x="702" 
d="M324 1262l346 376h293l-438 -376h-201zM63 0l218 1120h360l-219 -1120h-359z" />
    <glyph glyph-name="icircumflex" unicode="&#xee;" horiz-adv-x="702" 
d="M76 1262l328 376h262l182 -376h-178l-156 225l-241 -225h-197zM63 0l218 1120h360l-219 -1120h-359z" />
    <glyph glyph-name="idieresis" unicode="&#xef;" horiz-adv-x="702" 
d="M170 1339l47 246h238l-49 -246h-236zM566 1339l49 246h235l-49 -246h-235zM63 0l218 1120h360l-219 -1120h-359z" />
    <glyph glyph-name="igrave" unicode="&#xec;" horiz-adv-x="702" 
d="M127 1638h283l209 -376h-197zM63 0l218 1120h360l-219 -1120h-359z" />
    <glyph glyph-name="j" unicode="j" horiz-adv-x="702" 
d="M307 1264l58 292h360l-57 -292h-361zM66 20l215 1100h360l-215 -1100c-61 -313 -226 -462 -510 -462h-178l45 235h63c135 0 185 46 220 227z" />
    <glyph glyph-name="k" unicode="k" horiz-adv-x="1362" 
d="M63 0l302 1556h360l-164 -843l483 407h422l-651 -518l473 -602h-409l-363 483l-94 -483h-359z" />
    <glyph glyph-name="l" unicode="l" horiz-adv-x="702" 
d="M63 0l302 1556h360l-303 -1556h-359z" />
    <glyph glyph-name="lslash" unicode="&#x142;" horiz-adv-x="768" 
d="M274 868l134 688h360l-102 -516l168 78l100 -203l-320 -145l-149 -770h-361l117 598l-139 -68l-96 203z" />
    <glyph glyph-name="m" unicode="m" horiz-adv-x="2134" 
d="M1284 934c111 137 256 213 408 213c200 0 323 -117 323 -309c0 -40 -6 -91 -18 -156l-133 -682h-361l113 584l3 15c17 83 26 136 26 159c0 73 -45 119 -117 119c-137 0 -236 -117 -277 -326l-108 -551h-361l115 584c10 50 17 88 21 114c4 25 6 45 6 60
c0 75 -44 119 -117 119c-132 0 -238 -125 -277 -326l-108 -551h-359l218 1120h360l-33 -164c112 127 240 191 377 191c155 0 276 -88 299 -213z" />
    <glyph glyph-name="n" unicode="n" horiz-adv-x="1458" 
d="M1321 682l-133 -682h-359l113 584c16 76 25 128 25 159c0 85 -49 134 -136 134c-148 0 -260 -122 -301 -326l-108 -551h-359l218 1120h360l-33 -164c132 129 263 191 408 191c207 0 323 -113 323 -309c0 -43 -6 -95 -18 -156z" />
    <glyph glyph-name="ntilde" unicode="&#xf1;" horiz-adv-x="1458" 
d="M852 1364l-49 37c-2 1 -5 4 -10 7c-25 20 -48 30 -68 30c-45 0 -83 -49 -96 -129h-140c36 183 127 284 252 284c48 0 91 -17 140 -57l53 -43c24 -20 47 -31 67 -31c51 0 86 46 101 129h139c-35 -181 -125 -284 -250 -284c-45 0 -79 12 -139 57zM1321 682l-133 -682h-359
l113 584c16 76 25 128 25 159c0 85 -49 134 -136 134c-148 0 -260 -122 -301 -326l-108 -551h-359l218 1120h360l-33 -164c132 129 263 191 408 191c207 0 323 -113 323 -309c0 -43 -6 -95 -18 -156z" />
    <glyph glyph-name="o" unicode="o" horiz-adv-x="1407" 
d="M797 1147c333 0 536 -181 536 -473c0 -169 -61 -333 -176 -465c-136 -157 -323 -238 -551 -238c-329 0 -532 181 -532 473c0 168 63 334 178 467c133 155 321 236 545 236zM768 891c-185 0 -319 -187 -319 -447c0 -141 66 -217 190 -217c185 0 319 188 319 449
c0 140 -66 215 -190 215z" />
    <glyph glyph-name="oacute" unicode="&#xf3;" horiz-adv-x="1407" 
d="M658 1262l346 376h293l-438 -376h-201zM797 1147c333 0 536 -181 536 -473c0 -169 -61 -333 -176 -465c-136 -157 -323 -238 -551 -238c-329 0 -532 181 -532 473c0 168 63 334 178 467c133 155 321 236 545 236zM768 891c-185 0 -319 -187 -319 -447
c0 -141 66 -217 190 -217c185 0 319 188 319 449c0 140 -66 215 -190 215z" />
    <glyph glyph-name="ocircumflex" unicode="&#xf4;" horiz-adv-x="1407" 
d="M410 1262l328 376h262l182 -376h-178l-156 225l-241 -225h-197zM797 1147c333 0 536 -181 536 -473c0 -169 -61 -333 -176 -465c-136 -157 -323 -238 -551 -238c-329 0 -532 181 -532 473c0 168 63 334 178 467c133 155 321 236 545 236zM768 891
c-185 0 -319 -187 -319 -447c0 -141 66 -217 190 -217c185 0 319 188 319 449c0 140 -66 215 -190 215z" />
    <glyph glyph-name="odieresis" unicode="&#xf6;" horiz-adv-x="1407" 
d="M504 1339l47 246h238l-49 -246h-236zM900 1339l49 246h235l-49 -246h-235zM797 1147c333 0 536 -181 536 -473c0 -169 -61 -333 -176 -465c-136 -157 -323 -238 -551 -238c-329 0 -532 181 -532 473c0 168 63 334 178 467c133 155 321 236 545 236zM768 891
c-185 0 -319 -187 -319 -447c0 -141 66 -217 190 -217c185 0 319 188 319 449c0 140 -66 215 -190 215z" />
    <glyph glyph-name="ograve" unicode="&#xf2;" horiz-adv-x="1407" 
d="M461 1638h283l209 -376h-197zM797 1147c333 0 536 -181 536 -473c0 -169 -61 -333 -176 -465c-136 -157 -323 -238 -551 -238c-329 0 -532 181 -532 473c0 168 63 334 178 467c133 155 321 236 545 236zM768 891c-185 0 -319 -187 -319 -447c0 -141 66 -217 190 -217
c185 0 319 188 319 449c0 140 -66 215 -190 215z" />
    <glyph glyph-name="oslash" unicode="&#xf8;" horiz-adv-x="1407" 
d="M-35 10l187 164c-52 79 -78 171 -78 272c0 168 62 332 178 465c133 156 320 236 549 236c139 0 253 -31 344 -92l192 168l97 -111l-183 -162c55 -79 82 -171 82 -276c0 -169 -61 -333 -176 -465c-135 -155 -326 -238 -551 -238c-145 0 -261 32 -352 99l-193 -172z
M449 438l456 404c-31 32 -77 49 -137 49c-187 0 -306 -168 -319 -453zM958 692l-460 -409c33 -37 78 -56 141 -56c188 0 310 176 319 465z" />
    <glyph glyph-name="otilde" unicode="&#xf5;" horiz-adv-x="1407" 
d="M828 1364l-49 37c-2 1 -5 4 -10 7c-25 20 -48 30 -68 30c-45 0 -83 -49 -96 -129h-140c36 183 127 284 252 284c48 0 91 -17 140 -57l53 -43c24 -20 47 -31 67 -31c51 0 86 46 101 129h139c-35 -181 -125 -284 -250 -284c-45 0 -79 12 -139 57zM797 1147
c333 0 536 -181 536 -473c0 -169 -61 -333 -176 -465c-136 -157 -323 -238 -551 -238c-329 0 -532 181 -532 473c0 168 63 334 178 467c133 155 321 236 545 236zM768 891c-185 0 -319 -187 -319 -447c0 -141 66 -217 190 -217c185 0 319 188 319 449
c0 140 -66 215 -190 215z" />
    <glyph glyph-name="oe" unicode="&#x153;" horiz-adv-x="2241" 
d="M2136 518l-12 -57h-838c0 -4 0 -10 -1 -17c-1 -8 -1 -14 -1 -18c0 -145 87 -217 262 -217c149 0 318 46 502 135l-55 -278c-175 -64 -346 -95 -527 -95c-207 0 -336 51 -413 160c-120 -109 -258 -160 -441 -160c-335 0 -538 180 -538 473c0 169 63 335 176 467
c135 156 324 236 553 236c187 0 322 -54 407 -162c125 108 276 162 459 162c297 0 490 -177 490 -445c0 -53 -8 -116 -23 -184zM1333 682h465c4 17 6 36 6 53c0 107 -69 174 -178 174c-140 0 -244 -80 -293 -227zM768 891c-185 0 -319 -187 -319 -447
c0 -141 66 -217 190 -217c185 0 319 188 319 449c0 140 -66 215 -190 215z" />
    <glyph glyph-name="p" unicode="p" horiz-adv-x="1466" 
d="M455 162l-115 -588h-360l301 1546h360l-33 -164c109 131 226 191 369 191c252 0 409 -171 409 -447c0 -172 -53 -340 -149 -473c-121 -168 -276 -256 -451 -256c-153 0 -258 60 -331 191zM831 887c-184 0 -313 -187 -313 -459c0 -123 70 -197 187 -197
c180 0 311 186 311 447c0 136 -65 209 -185 209z" />
    <glyph glyph-name="thorn" unicode="&#xfe;" horiz-adv-x="1466" 
d="M455 162l-115 -588h-360l385 1982h360l-117 -600c109 131 226 191 369 191c252 0 409 -171 409 -447c0 -172 -53 -340 -149 -473c-121 -168 -276 -256 -451 -256c-153 0 -258 60 -331 191zM831 887c-184 0 -313 -187 -313 -459c0 -123 70 -197 187 -197
c180 0 311 186 311 447c0 136 -65 209 -185 209z" />
    <glyph glyph-name="q" unicode="q" horiz-adv-x="1466" 
d="M1006 956l30 164h361l-301 -1546h-361l115 588c-107 -131 -224 -191 -367 -191c-252 0 -409 171 -409 447c0 172 53 340 149 473c121 168 276 256 451 256c153 0 257 -60 332 -191zM629 231c184 0 311 186 311 459c0 124 -68 197 -184 197c-181 0 -312 -186 -312 -447
c0 -136 65 -209 185 -209z" />
    <glyph glyph-name="r" unicode="r" horiz-adv-x="1010" 
d="M1116 1139l-63 -324c-49 28 -110 43 -179 43c-183 0 -307 -121 -350 -342l-102 -516h-359l218 1120h360l-39 -192c95 141 241 219 414 219c25 0 56 -3 100 -8z" />
    <glyph glyph-name="s" unicode="s" horiz-adv-x="1219" 
d="M1147 1085l-53 -278c-140 67 -282 102 -406 102c-141 0 -221 -38 -221 -106c0 -20 11 -36 32 -48s63 -25 126 -38l65 -12c289 -61 391 -148 391 -320c0 -260 -214 -414 -581 -414c-153 0 -313 24 -480 72l54 281c129 -76 279 -115 434 -115c75 0 132 9 170 27
s57 44 57 79c0 24 -11 43 -32 56s-65 27 -132 41l-65 12c-256 53 -356 150 -356 334c0 249 195 389 546 389c153 0 300 -21 451 -62z" />
    <glyph glyph-name="scaron" unicode="&#x161;" horiz-adv-x="1219" 
d="M1179 1638l-329 -376h-260l-183 376h176l156 -227l244 227h196zM1147 1085l-53 -278c-140 67 -282 102 -406 102c-141 0 -221 -38 -221 -106c0 -20 11 -36 32 -48s63 -25 126 -38l65 -12c289 -61 391 -148 391 -320c0 -260 -214 -414 -581 -414c-153 0 -313 24 -480 72
l54 281c129 -76 279 -115 434 -115c75 0 132 9 170 27s57 44 57 79c0 24 -11 43 -32 56s-65 27 -132 41l-65 12c-256 53 -356 150 -356 334c0 249 195 389 546 389c153 0 300 -21 451 -62z" />
    <glyph glyph-name="scedilla" unicode="&#x15f;" horiz-adv-x="1219" 
d="M688 909c-141 0 -221 -38 -221 -106c0 -20 11 -36 32 -48s63 -25 126 -38l65 -12c289 -61 391 -148 391 -320c0 -242 -185 -392 -506 -412c36 -57 53 -106 53 -155c0 -139 -105 -219 -288 -219c-65 0 -129 9 -197 26l29 156c53 -23 108 -35 159 -35c88 0 142 41 142 104
c0 30 -13 66 -43 123c-132 6 -268 29 -410 70l54 281c129 -76 279 -115 434 -115c75 0 132 9 170 27s57 44 57 79c0 24 -11 43 -32 56s-65 27 -132 41l-65 12c-256 53 -356 150 -356 334c0 249 195 389 546 389c153 0 300 -21 451 -62l-53 -278c-140 67 -282 102 -406 102z
" />
    <glyph glyph-name="germandbls" unicode="&#xdf;" horiz-adv-x="1473" 
d="M63 0l216 1114c56 299 260 442 624 442c301 0 461 -119 461 -346c0 -27 -3 -59 -10 -95l-15 -73c-201 -7 -329 -74 -329 -170c0 -37 34 -79 102 -127l15 -10l61 -43c112 -79 162 -168 162 -289c0 -257 -202 -432 -506 -432c-104 0 -204 17 -303 49l49 244
c75 -36 150 -55 219 -55c109 0 182 56 182 137c0 27 -8 51 -23 73c-15 21 -49 50 -100 87l-61 43c-89 63 -127 127 -127 211c0 184 125 320 356 385c1 8 2 17 2 37c0 89 -56 137 -161 137c-136 0 -212 -70 -240 -219l-215 -1100h-359z" />
    <glyph glyph-name="t" unicode="t" horiz-adv-x="979" 
d="M377 1438h360l-61 -318h366l-51 -256h-366l-92 -474c-5 -21 -7 -35 -7 -48c0 -61 37 -86 133 -86h185l-51 -256h-301c-216 0 -332 93 -332 264c0 37 4 81 12 125l92 475h-176l49 256h178z" />
    <glyph glyph-name="u" unicode="u" horiz-adv-x="1458" 
d="M139 436l131 684h359l-113 -583c-16 -76 -24 -129 -24 -160c0 -84 48 -133 135 -133c148 0 261 121 301 325l108 551h359l-217 -1120h-361l33 164c-123 -129 -257 -193 -406 -193c-204 0 -321 113 -321 310c0 47 5 99 16 155z" />
    <glyph glyph-name="uacute" unicode="&#xfa;" horiz-adv-x="1458" 
d="M682 1262l346 376h293l-438 -376h-201zM139 436l131 684h359l-113 -583c-16 -76 -24 -129 -24 -160c0 -84 48 -133 135 -133c148 0 261 121 301 325l108 551h359l-217 -1120h-361l33 164c-123 -129 -257 -193 -406 -193c-204 0 -321 113 -321 310c0 47 5 99 16 155z" />
    <glyph glyph-name="ucircumflex" unicode="&#xfb;" horiz-adv-x="1458" 
d="M434 1262l328 376h262l182 -376h-178l-156 225l-241 -225h-197zM139 436l131 684h359l-113 -583c-16 -76 -24 -129 -24 -160c0 -84 48 -133 135 -133c148 0 261 121 301 325l108 551h359l-217 -1120h-361l33 164c-123 -129 -257 -193 -406 -193c-204 0 -321 113 -321 310
c0 47 5 99 16 155z" />
    <glyph glyph-name="udieresis" unicode="&#xfc;" horiz-adv-x="1458" 
d="M528 1339l47 246h238l-49 -246h-236zM924 1339l49 246h235l-49 -246h-235zM139 436l131 684h359l-113 -583c-16 -76 -24 -129 -24 -160c0 -84 48 -133 135 -133c148 0 261 121 301 325l108 551h359l-217 -1120h-361l33 164c-123 -129 -257 -193 -406 -193
c-204 0 -321 113 -321 310c0 47 5 99 16 155z" />
    <glyph glyph-name="ugrave" unicode="&#xf9;" horiz-adv-x="1458" 
d="M485 1638h283l209 -376h-197zM139 436l131 684h359l-113 -583c-16 -76 -24 -129 -24 -160c0 -84 48 -133 135 -133c148 0 261 121 301 325l108 551h359l-217 -1120h-361l33 164c-123 -129 -257 -193 -406 -193c-204 0 -321 113 -321 310c0 47 5 99 16 155z" />
    <glyph glyph-name="v" unicode="v" horiz-adv-x="1335" 
d="M352 0l-223 1120h330l145 -782l422 782h363l-658 -1120h-379z" />
    <glyph glyph-name="w" unicode="w" horiz-adv-x="1892" 
d="M256 0l-78 1120h330l39 -770l338 770h284l41 -768l336 768h352l-512 -1120h-380l-37 770l-342 -770h-371z" />
    <glyph glyph-name="x" unicode="x" horiz-adv-x="1321" 
d="M-84 0l537 573l-297 547h372l166 -332l291 332h389l-510 -545l312 -575h-373l-176 354l-322 -354h-389z" />
    <glyph glyph-name="y" unicode="y" horiz-adv-x="1335" 
d="M406 -14l-271 1134h338l154 -776l397 776h383l-709 -1226c-159 -276 -268 -336 -481 -336h-217l37 235h113c117 0 172 34 223 133z" />
    <glyph glyph-name="yacute" unicode="&#xfd;" horiz-adv-x="1335" 
d="M621 1262l346 376h293l-438 -376h-201zM406 -14l-271 1134h338l154 -776l397 776h383l-709 -1226c-159 -276 -268 -336 -481 -336h-217l37 235h113c117 0 172 34 223 133z" />
    <glyph glyph-name="ydieresis" unicode="&#xff;" horiz-adv-x="1335" 
d="M467 1339l47 246h238l-49 -246h-236zM863 1339l49 246h235l-49 -246h-235zM406 -14l-271 1134h338l154 -776l397 776h383l-709 -1226c-159 -276 -268 -336 -481 -336h-217l37 235h113c117 0 172 34 223 133z" />
    <glyph glyph-name="z" unicode="z" horiz-adv-x="1192" 
d="M174 864l49 256h977l-49 -250l-698 -614h579l-49 -256h-1001l47 250l700 614h-555z" />
    <glyph glyph-name="zcaron" unicode="&#x17e;" horiz-adv-x="1192" 
d="M1165 1638l-329 -376h-260l-183 376h176l156 -227l244 227h196zM174 864l49 256h977l-49 -250l-698 -614h579l-49 -256h-1001l47 250l700 614h-555z" />
    <glyph glyph-name="fi" unicode="&#xfb01;" horiz-adv-x="1612" 
d="M831 1556h275l-47 -235h-197c-100 0 -140 -33 -157 -122l-17 -79h303l-49 -256h-303l-168 -864h-360l168 864h-177l50 256h176l16 78c49 248 199 358 487 358zM1217 1264l57 292h360l-57 -292h-360zM973 0l217 1120h360l-219 -1120h-358z" />
    <glyph glyph-name="fl" unicode="&#xfb02;" horiz-adv-x="1612" 
d="M831 1556h803l-303 -1556h-358l254 1321h-365c-100 0 -140 -33 -157 -122l-17 -79h303l-49 -256h-303l-168 -864h-360l168 864h-177l50 256h176l16 78c49 248 199 358 487 358z" />
    <glyph glyph-name="ordfeminine" unicode="&#xaa;" horiz-adv-x="1155" 
d="M1069 1165l-86 -448h-248l25 125c-88 -101 -183 -146 -318 -146c-167 0 -264 78 -264 211c0 207 166 312 490 312h141l4 20c1 3 1 6 2 9v16c0 59 -52 90 -153 90c-117 0 -234 -23 -347 -70l35 180c131 37 248 56 348 56c248 0 381 -87 381 -250c0 -41 -3 -74 -10 -105z
M782 1081h-90c-99 0 -167 -9 -204 -28s-56 -52 -56 -99c0 -59 44 -96 115 -96c112 0 208 84 231 201zM88 373l39 200h815l-39 -200h-815z" />
    <glyph glyph-name="ordmasculine" unicode="&#xba;" horiz-adv-x="1155" 
d="M719 1520c244 0 397 -130 397 -334c0 -292 -214 -488 -538 -488c-243 0 -400 133 -400 334c0 289 217 488 541 488zM694 1350c-132 0 -229 -138 -229 -326c0 -101 48 -156 137 -156c132 0 229 137 229 326c0 100 -49 156 -137 156zM94 373l39 200h823l-38 -200h-824z" />
    <glyph glyph-name="uni03A9" unicode="&#x3a9;" horiz-adv-x="1575" 
d="M1227 256h291v-256h-609v291c168 115 258 294 258 514c0 271 -144 436 -381 436c-236 0 -380 -165 -380 -436c0 -219 90 -401 258 -514v-291h-609v256h291c-168 161 -248 344 -248 563c0 417 272 690 688 690c417 0 689 -273 689 -690c0 -219 -80 -402 -248 -563z" />
    <glyph glyph-name="pi" unicode="&#x3c0;" horiz-adv-x="1319" 
d="M399 1092h955l-39 -224h-176l-154 -868h-287l152 868h-238l-151 -868h-287l152 868h-25c-73 0 -110 -39 -123 -130l-213 -1c39 265 145 355 434 355z" />
    <glyph glyph-name="zero" unicode="0" horiz-adv-x="1425" 
d="M1352 983c0 -265 -77 -528 -209 -717c-135 -195 -328 -295 -563 -295c-327 0 -506 191 -506 539c0 261 76 526 207 713c137 196 328 297 565 297c324 0 506 -193 506 -537zM612 233c103 0 183 62 236 181c37 84 67 187 94 334c23 119 35 221 35 292
c0 149 -52 217 -164 217c-104 0 -183 -59 -235 -180c-40 -87 -73 -198 -97 -329c-23 -120 -35 -226 -35 -297c0 -148 54 -218 166 -218z" />
    <glyph glyph-name="one" unicode="1" horiz-adv-x="1425" 
d="M88 0l53 266h340l187 965l-363 -72l51 262l361 72h366l-237 -1227h338l-51 -266h-1045z" />
    <glyph glyph-name="two" unicode="2" horiz-adv-x="1425" 
d="M879 563l-373 -280h649l-55 -283h-1084l56 285l635 479c139 107 213 218 213 321c0 109 -78 172 -213 172c-127 0 -280 -49 -476 -153l64 317c181 67 355 99 526 99c304 0 490 -140 490 -367c0 -195 -69 -318 -432 -590z" />
    <glyph glyph-name="three" unicode="3" horiz-adv-x="1425" 
d="M967 805c151 -35 239 -146 239 -299c0 -331 -278 -535 -737 -535c-173 0 -330 25 -469 74l57 297c119 -69 264 -109 404 -109c225 0 366 91 366 234c0 119 -100 178 -301 178h-153l49 248h162c209 0 340 82 340 211c0 101 -87 156 -248 156c-113 0 -249 -30 -393 -86
l55 282c157 43 310 64 459 64c337 0 508 -113 508 -334c0 -199 -123 -337 -338 -381z" />
    <glyph glyph-name="four" unicode="4" horiz-adv-x="1425" 
d="M63 602l771 891h438l-185 -942h213l-53 -279h-213l-53 -272h-365l54 272h-672zM723 551l121 614l-531 -614h410z" />
    <glyph glyph-name="five" unicode="5" horiz-adv-x="1425" 
d="M199 653l163 840h957l-55 -283h-650l-45 -231c59 16 123 25 187 25c305 0 487 -147 487 -394c0 -392 -284 -639 -739 -639c-167 0 -322 32 -477 99l59 303c148 -96 284 -140 428 -140c211 0 348 120 348 299c0 128 -103 209 -268 209c-112 0 -240 -28 -395 -88z" />
    <glyph glyph-name="six" unicode="6" horiz-adv-x="1425" 
d="M1352 1454l-54 -276c-115 59 -221 88 -329 88c-248 0 -408 -140 -441 -381c104 68 212 100 336 100c245 0 418 -162 418 -387c0 -368 -266 -629 -645 -629c-340 0 -535 201 -535 553c0 272 87 530 236 709c160 191 379 287 651 287c125 0 242 -21 363 -64zM741 737
c-152 0 -260 -139 -260 -336c0 -119 63 -188 170 -188c151 0 260 138 260 326c0 128 -61 198 -170 198z" />
    <glyph glyph-name="seven" unicode="7" horiz-adv-x="1425" 
d="M242 1210l53 283h1126l-45 -219l-831 -1274h-385l790 1210h-708z" />
    <glyph glyph-name="eight" unicode="8" horiz-adv-x="1425" 
d="M442 795c-144 60 -215 155 -215 290c0 271 235 435 627 435c315 0 496 -123 496 -336c0 -189 -125 -329 -349 -389c163 -63 238 -165 238 -326c0 -307 -255 -498 -672 -498c-329 0 -522 138 -522 373c0 212 149 380 397 451zM819 1278c-136 0 -225 -86 -225 -217
c0 -91 65 -152 162 -152c136 0 225 86 225 217c0 92 -65 152 -162 152zM688 668c-156 0 -274 -120 -274 -275c0 -111 73 -180 190 -180c159 0 275 118 275 274c0 111 -74 181 -191 181z" />
    <glyph glyph-name="nine" unicode="9" horiz-adv-x="1425" 
d="M84 33l53 276c116 -60 222 -88 330 -88c248 0 408 140 440 381c-103 -68 -210 -100 -334 -100c-244 0 -417 162 -417 387c0 368 266 629 645 629c340 0 534 -201 534 -553c0 -271 -86 -529 -237 -709c-160 -191 -377 -287 -649 -287c-127 0 -245 21 -365 64zM694 750
c152 0 260 139 260 335c0 121 -60 189 -168 189c-151 0 -262 -139 -262 -326c0 -128 61 -198 170 -198z" />
    <glyph glyph-name="uni00B9" unicode="&#xb9;" horiz-adv-x="897" 
d="M137 668l31 157h205l102 521l-233 -52l30 160l244 49h219l-133 -678h207l-31 -157h-641z" />
    <glyph glyph-name="uni00B2" unicode="&#xb2;" horiz-adv-x="897" 
d="M655 999l-231 -163h377l-33 -168h-676l31 153l366 266c107 77 158 143 158 199c0 53 -46 86 -123 86c-91 0 -191 -31 -286 -90l36 186c111 35 209 52 301 52c199 0 308 -76 308 -209c0 -105 -68 -200 -228 -312z" />
    <glyph glyph-name="uni00B3" unicode="&#xb3;" horiz-adv-x="897" 
d="M666 1120c100 -17 153 -81 153 -182c0 -183 -162 -285 -450 -285c-107 0 -204 16 -287 47l33 172c77 -48 157 -73 237 -73c145 0 232 54 232 143c0 72 -64 105 -203 105h-76l27 137h86c141 0 219 40 219 112c0 51 -51 76 -150 76c-72 0 -155 -17 -258 -53l31 166
c96 23 196 35 293 35c207 0 321 -69 321 -193c0 -108 -81 -188 -208 -207z" />
    <glyph glyph-name="fraction" unicode="&#x2044;" horiz-adv-x="342" 
d="M911 1520l-1235 -1549h-245l1235 1549h245z" />
    <glyph glyph-name="onehalf" unicode="&#xbd;" horiz-adv-x="2181" 
d="M1851 1520l-1235 -1549h-245l1235 1549h245zM137 668l31 157h205l102 521l-233 -52l30 160l244 49h219l-133 -678h207l-31 -157h-641zM1835 332l-231 -164h374l-32 -168h-674l31 154l366 266c108 77 158 141 158 196s-47 89 -123 89c-91 0 -194 -32 -289 -91l37 187
c111 35 208 51 301 51c199 0 309 -76 309 -209c0 -105 -68 -199 -227 -311z" />
    <glyph glyph-name="onequarter" unicode="&#xbc;" horiz-adv-x="2181" 
d="M1851 1520l-1235 -1549h-245l1235 1549h245zM137 668l31 157h205l102 521l-233 -52l30 160l244 49h219l-133 -678h207l-31 -157h-641zM1243 330l469 506h250l-100 -519h135l-29 -155h-137l-33 -162h-229l33 162h-392zM1632 317l68 334l-307 -334h239z" />
    <glyph glyph-name="threequarters" unicode="&#xbe;" horiz-adv-x="2181" 
d="M674 1120c101 -19 155 -81 155 -182c0 -183 -161 -285 -450 -285c-108 0 -206 16 -289 47l35 172c77 -48 157 -73 237 -73c145 0 232 54 232 143c0 72 -63 105 -203 105h-76l27 137h86c141 0 217 40 217 112c0 51 -51 76 -147 76c-75 0 -160 -17 -260 -53l32 166
c96 23 196 35 293 35c207 0 320 -69 320 -193c0 -108 -81 -188 -209 -207zM1866 1520l-1235 -1549h-246l1235 1549h246zM1247 330l471 506h248l-100 -519h137l-31 -155h-137l-31 -162h-229l31 162h-389zM1638 317l66 334l-305 -334h239z" />
    <glyph glyph-name="asterisk" unicode="*" horiz-adv-x="1071" 
d="M954 1358l76 -141l-330 -173l330 -174l-76 -141l-333 184v-344h-170v344l-334 -184l-76 141l334 174l-334 173l76 141l334 -182v344h170v-344z" />
    <glyph glyph-name="backslash" unicode="\" horiz-adv-x="748" 
d="M565 -190h-221l-199 1683h222z" />
    <glyph glyph-name="periodcentered" unicode="&#xb7;" horiz-adv-x="778" 
d="M172 518l76 387h360l-76 -387h-360z" />
    <glyph glyph-name="bullet" unicode="&#x2022;" horiz-adv-x="1309" 
d="M295 762c0 99 36 187 104 254c71 68 159 104 256 104s187 -37 254 -104c69 -69 105 -157 105 -254c0 -99 -37 -188 -105 -256s-157 -105 -256 -105c-97 0 -186 37 -254 105c-67 68 -104 157 -104 256z" />
    <glyph glyph-name="colon" unicode=":" horiz-adv-x="819" 
d="M260 833l74 290h361l-74 -290h-361zM159 420l74 290h361l-74 -290h-361zM60 0l76 290h360l-76 -290h-360z" />
    <glyph glyph-name="comma" unicode="," horiz-adv-x="778" 
d="M104 82l60 305h360l-59 -305l-322 -373h-213z" />
    <glyph glyph-name="ellipsis" unicode="&#x2026;" horiz-adv-x="2048" 
d="M94 0l76 387h360l-75 -387h-361zM729 0l76 387h360l-75 -387h-361zM1364 0l76 387h360l-76 -387h-360z" />
    <glyph glyph-name="exclam" unicode="!" horiz-adv-x="934" 
d="M319 920l113 573h361l-113 -573l-131 -418h-258zM141 0l70 356h360l-69 -356h-361z" />
    <glyph glyph-name="exclamdown" unicode="&#xa1;" horiz-adv-x="934" 
d="M793 1493l-70 -356h-361l70 356h361zM614 573l-112 -573h-361l113 573l131 418h258z" />
    <glyph glyph-name="numbersign" unicode="#" horiz-adv-x="1425" 
d="M688 1470h223l-96 -385h264l97 385h221l-97 -385h297l-53 -213h-297l-69 -274h297l-54 -215h-295l-96 -383h-221l96 383h-264l-96 -383h-223l96 383h-285l53 215h281l70 274h-283l53 213h285zM954 598l70 274h-264l-70 -274h264z" />
    <glyph glyph-name="period" unicode="." horiz-adv-x="778" 
d="M94 0l76 387h360l-75 -387h-361z" />
    <glyph glyph-name="question" unicode="?" horiz-adv-x="1188" 
d="M680 549l-8 -45h-361l8 49c21 107 59 171 234 307l74 58c105 81 151 149 151 221c0 76 -56 118 -157 118c-107 0 -243 -45 -396 -133l62 314c169 56 305 82 434 82c259 0 414 -121 414 -320c0 -159 -63 -273 -234 -409l-76 -60c-107 -83 -134 -125 -145 -182zM213 0
l70 356h360l-70 -356h-360z" />
    <glyph glyph-name="questiondown" unicode="&#xbf;" horiz-adv-x="1188" 
d="M999 1493l-69 -356h-361l70 356h360zM532 944l9 45h360l-10 -51c-20 -107 -57 -169 -232 -305l-75 -60c-107 -81 -150 -147 -150 -219c0 -76 55 -118 156 -118c107 0 245 46 397 133l-61 -314c-169 -56 -306 -82 -434 -82c-260 0 -416 121 -416 320c0 159 64 273 233 409
l76 60c111 87 136 126 147 182z" />
    <glyph glyph-name="quotedbl" unicode="&#x22;" horiz-adv-x="1067" 
d="M195 1493h237v-555h-237v555zM635 1493h237v-555h-237v555z" />
    <glyph glyph-name="quotesingle" unicode="'" horiz-adv-x="627" 
d="M195 1493h237v-555h-237v555z" />
    <glyph glyph-name="semicolon" unicode=";" horiz-adv-x="819" 
d="M227 733l74 387h361l-74 -387h-361zM100 82l60 305h360l-59 -305l-320 -373h-213z" />
    <glyph glyph-name="slash" unicode="/" horiz-adv-x="748" 
d="M-197 -190l854 1683h232l-854 -1683h-232z" />
    <glyph glyph-name="underscore" unicode="_" 
d="M-20 -225h1064v-258h-1064v258z" />
    <glyph glyph-name="periodcentered.257" horiz-adv-x="778" 
d="M172 518l76 387h360l-76 -387h-360z" />
    <glyph glyph-name="braceleft" unicode="{" horiz-adv-x="1458" 
d="M979 -109h68l-43 -225h-218c-239 0 -360 82 -360 246c0 29 5 69 14 122l37 193c8 40 12 78 12 107c0 117 -52 160 -208 160h-64l45 223h62c188 0 262 66 301 266l39 205c49 257 197 368 489 368h217l-43 -225h-70c-185 0 -233 -40 -270 -229l-33 -166
c-40 -208 -110 -291 -262 -324c107 -28 154 -85 154 -188c0 -40 -5 -84 -17 -137l-32 -166c-12 -61 -15 -88 -15 -111c0 -89 42 -119 197 -119z" />
    <glyph glyph-name="braceright" unicode="}" horiz-adv-x="1458" 
d="M90 -334l43 225h70c187 0 234 42 270 230l33 166c40 207 111 290 264 325c-107 25 -156 83 -156 187c0 32 6 77 17 137l33 166c11 56 14 86 14 110c0 91 -42 119 -197 119h-67l43 225h219c239 0 358 -81 358 -245c0 -37 -5 -78 -14 -123l-39 -205
c-8 -40 -12 -77 -12 -106c0 -117 54 -160 209 -160h63l-45 -223h-61c-188 0 -262 -67 -301 -267l-37 -192c-49 -257 -198 -369 -490 -369h-217z" />
    <glyph glyph-name="bracketleft" unicode="[" horiz-adv-x="936" 
d="M-20 -270l354 1826h620l-45 -225h-278l-269 -1376h281l-45 -225h-618z" />
    <glyph glyph-name="bracketright" unicode="]" horiz-adv-x="936" 
d="M918 1556l-355 -1826h-620l43 225h280l269 1376h-281l43 225h621z" />
    <glyph glyph-name="parenleft" unicode="(" horiz-adv-x="936" 
d="M604 -270h-291c-104 221 -155 432 -155 643c0 393 169 785 510 1181h290c-311 -413 -462 -815 -462 -1222c0 -200 36 -398 108 -602z" />
    <glyph glyph-name="parenright" unicode=")" horiz-adv-x="936" 
d="M299 1554h293c103 -219 153 -430 153 -643c0 -397 -168 -789 -507 -1181h-293c311 413 463 816 463 1224c0 200 -36 396 -109 600z" />
    <glyph glyph-name="emdash" unicode="&#x2014;" horiz-adv-x="2048" 
d="M-61 432l51 258h2048l-51 -258h-2048z" />
    <glyph glyph-name="endash" unicode="&#x2013;" 
d="M-61 432l51 258h1024l-51 -258h-1024z" />
    <glyph glyph-name="hyphen" unicode="-" horiz-adv-x="850" 
d="M51 444l58 291h628l-57 -291h-629z" />
    <glyph glyph-name="uni00AD" unicode="&#xad;" horiz-adv-x="850" 
d="M51 444l58 291h628l-57 -291h-629z" />
    <glyph glyph-name="guillemotleft" unicode="&#xab;" horiz-adv-x="1331" 
d="M162 692l565 371l-49 -252l-346 -229l258 -222l-43 -223l-422 369zM651 692l566 371l-50 -252l-346 -229l258 -222l-43 -223l-422 369z" />
    <glyph glyph-name="guillemotright" unicode="&#xbb;" horiz-adv-x="1331" 
d="M682 506l-565 -371l49 254l344 229l-256 222l43 223l420 -371zM1171 506l-565 -371l49 254l344 229l-258 222l45 223l420 -371z" />
    <glyph glyph-name="guilsinglleft" unicode="&#x2039;" horiz-adv-x="844" 
d="M162 692l565 371l-49 -252l-346 -229l258 -222l-43 -223l-422 369z" />
    <glyph glyph-name="guilsinglright" unicode="&#x203a;" horiz-adv-x="844" 
d="M643 506l-565 -371l49 254l344 229l-256 222l43 223l420 -371z" />
    <glyph glyph-name="quotedblbase" unicode="&#x201e;" horiz-adv-x="1319" 
d="M100 102l56 285h340l-56 -285l-297 -352h-213zM639 102l55 285h340l-55 -285l-295 -352h-213z" />
    <glyph glyph-name="quotedblleft" unicode="&#x201c;" horiz-adv-x="1319" 
d="M627 1141l-56 -285h-340l58 285l295 352h213zM1167 1141l-55 -285h-340l55 285l295 352h213z" />
    <glyph glyph-name="quotedblright" unicode="&#x201d;" horiz-adv-x="1319" 
d="M319 1208l56 285h340l-56 -285l-297 -352h-212zM858 1208l55 285h340l-55 -285l-295 -352h-213z" />
    <glyph glyph-name="quoteleft" unicode="&#x2018;" horiz-adv-x="778" 
d="M627 1141l-56 -285h-340l58 285l295 352h213z" />
    <glyph glyph-name="quoteright" unicode="&#x2019;" horiz-adv-x="778" 
d="M319 1208l56 285h340l-56 -285l-297 -352h-212z" />
    <glyph glyph-name="quotesinglbase" unicode="&#x201a;" horiz-adv-x="778" 
d="M100 102l56 285h340l-56 -285l-297 -352h-213z" />
    <glyph glyph-name="space" unicode=" " horiz-adv-x="713" 
 />
    <glyph glyph-name="uni00A0" unicode="&#xa0;" horiz-adv-x="1425" 
 />
    <glyph glyph-name="CR" unicode="&#xd;" horiz-adv-x="713" 
 />
    <glyph glyph-name="cent" unicode="&#xa2;" horiz-adv-x="1425" 
d="M1249 1085l-57 -292c-100 67 -189 98 -274 98h-9l-128 -664c119 3 224 35 319 99l-56 -293c-96 -33 -200 -53 -313 -60l-55 -286h-162l55 290c-268 29 -432 194 -432 437c0 388 265 682 660 727l55 291h162l-55 -287c91 -3 189 -23 290 -60zM625 264l116 592
c-136 -61 -225 -212 -225 -383c0 -99 40 -174 109 -209z" />
    <glyph glyph-name="currency" unicode="&#xa4;" horiz-adv-x="1303" 
d="M434 268l-207 -207l-153 154l207 207c-37 65 -56 135 -56 219s20 156 60 217l-209 205l153 154l207 -207c64 40 136 59 217 59c72 0 143 -18 219 -55l207 207l152 -154l-207 -207c39 -73 57 -147 57 -219c0 -84 -19 -152 -59 -215l207 -207l-154 -153l-207 206
c-61 -40 -131 -59 -215 -59c-77 0 -148 18 -219 55zM653 422c121 0 219 96 219 219s-96 219 -219 219c-121 0 -219 -96 -219 -219c0 -124 95 -219 219 -219z" />
    <glyph glyph-name="dollar" unicode="$" horiz-adv-x="1425" 
d="M654 0l-58 -301h-162l59 301c-169 7 -314 35 -438 86l49 262c128 -73 273 -115 433 -120l61 311c-280 41 -401 144 -401 335c0 265 214 441 554 453l44 229h161l-43 -227c135 -8 260 -31 377 -67l-49 -254c-84 49 -214 82 -373 91l-57 -288c284 -48 418 -153 418 -332
c0 -293 -210 -467 -575 -479zM655 836l51 262c-112 -11 -184 -69 -184 -150c0 -64 42 -100 133 -112zM754 512l-55 -285c132 7 206 66 206 166c0 68 -47 104 -151 119z" />
    <glyph glyph-name="Euro" unicode="&#x20ac;" horiz-adv-x="1425" 
d="M1249 401l-59 -331c-165 -65 -319 -99 -455 -99c-328 0 -541 183 -590 506h-229l88 195h139c3 43 9 86 25 149h-176l86 195h155c131 308 422 504 750 504c140 0 280 -36 424 -111l-55 -309c-109 108 -219 157 -355 157c-149 0 -281 -85 -372 -241h497l-86 -195h-483
c-9 -45 -16 -92 -20 -149h438l-88 -195h-338c32 -159 138 -244 301 -244c123 0 264 60 403 168z" />
    <glyph glyph-name="florin" unicode="&#x192;" horiz-adv-x="1425" 
d="M1354 1520l-49 -244c-53 31 -95 43 -146 43c-120 0 -181 -68 -217 -256l-33 -168h308l-46 -238h-309l-135 -673c-56 -276 -206 -410 -459 -410c-113 0 -207 10 -291 31l48 250c53 -29 102 -43 149 -43c120 0 180 64 217 256l117 589h-266l47 238h266l49 252
c56 275 208 409 461 409c92 0 188 -12 289 -36z" />
    <glyph glyph-name="sterling" unicode="&#xa3;" horiz-adv-x="1425" 
d="M1415 1466l-55 -286c-79 49 -175 77 -270 77c-167 0 -256 -79 -291 -256l-33 -170h373l-45 -239h-375l-64 -326h541l-51 -266h-1131l52 266h225l63 326h-192l45 239h194l33 170c69 360 262 519 629 519c123 0 240 -18 352 -54z" />
    <glyph glyph-name="yen" unicode="&#xa5;" horiz-adv-x="1425" 
d="M1331 610l-37 -194h-454l-82 -416h-381l82 416h-447l39 194h445l14 76l-29 76h-401l37 192h291l-215 539h368l195 -500l385 500h405l-440 -539h293l-37 -192h-408l-59 -76l-18 -76h454z" />
    <glyph glyph-name="plus" unicode="+" horiz-adv-x="1716" 
d="M739 1284h238v-524h522v-236h-522v-524h-238v524h-522v236h522v524z" />
    <glyph glyph-name="minus" unicode="&#x2212;" horiz-adv-x="1716" 
d="M217 524v236h1282v-236h-1282z" />
    <glyph glyph-name="multiply" unicode="&#xd7;" horiz-adv-x="1716" 
d="M1292 1243l168 -168l-434 -434l434 -432l-168 -168l-434 432l-434 -432l-168 168l434 432l-434 434l168 168l434 -434z" />
    <glyph glyph-name="divide" unicode="&#xf7;" horiz-adv-x="1716" 
d="M705 889v309h307v-309h-307zM217 524v236h1282v-236h-1282zM705 86v309h307v-309h-307z" />
    <glyph glyph-name="equal" unicode="=" horiz-adv-x="1716" 
d="M217 752v235h1282v-235h-1282zM217 295v237h1282v-237h-1282z" />
    <glyph glyph-name="notequal" unicode="&#x2260;" horiz-adv-x="1716" 
d="M217 752v235h791l252 305l149 -125l-145 -180h235v-235h-418l-174 -220h592v-237h-790l-252 -305l-150 127l146 178h-236v237h424l176 220h-600z" />
    <glyph glyph-name="greater" unicode="&#x3e;" horiz-adv-x="1716" 
d="M1182 641l-965 332v250l1282 -463v-236l-1282 -463v250z" />
    <glyph glyph-name="less" unicode="&#x3c;" horiz-adv-x="1716" 
d="M1499 1223v-250l-964 -332l964 -330v-250l-1282 463v236z" />
    <glyph glyph-name="greaterequal" unicode="&#x2265;" horiz-adv-x="1716" 
d="M1114 739l-897 209v244l1282 -334v-235l-1282 -336v243zM217 0v238h1282v-238h-1282z" />
    <glyph glyph-name="lessequal" unicode="&#x2264;" horiz-adv-x="1716" 
d="M1499 1192v-244l-897 -209l897 -209v-243l-1282 336v235zM217 238h1282v-238h-1282v238z" />
    <glyph glyph-name="plusminus" unicode="&#xb1;" horiz-adv-x="1716" 
d="M739 1284h238v-354h522v-236h-522v-354h-238v354h-522v236h522v354zM217 0v238h1282v-238h-1282z" />
    <glyph glyph-name="approxequal" unicode="&#x2248;" horiz-adv-x="1716" 
d="M1499 1059v-244c-141 -107 -253 -149 -381 -149c-71 0 -155 19 -250 58l-22 9c-5 2 -12 5 -22 9c-103 41 -186 61 -249 61c-117 0 -227 -49 -358 -160v244c140 104 252 147 381 147c73 0 159 -20 257 -59l15 -6c5 -2 13 -5 22 -9c103 -41 186 -61 249 -61
c115 0 221 47 358 160zM1499 641v-244c-141 -107 -253 -149 -381 -149c-71 0 -155 19 -250 58c-9 4 -17 7 -23 10c-4 1 -11 4 -21 8c-103 41 -186 61 -249 61c-117 0 -227 -48 -358 -160v244c143 107 253 149 381 149c71 0 155 -19 250 -58l22 -9c5 -2 13 -5 22 -8
c103 -41 186 -62 249 -62c115 0 221 47 358 160z" />
    <glyph glyph-name="asciitilde" unicode="~" horiz-adv-x="1716" 
d="M1499 850v-244c-141 -107 -253 -149 -381 -149c-71 0 -155 19 -250 58l-22 9c-5 2 -12 5 -22 9c-103 41 -186 61 -249 61c-117 0 -227 -49 -358 -160v244c143 107 253 149 381 149c71 0 155 -19 250 -58l22 -9c5 -2 12 -5 22 -9c103 -41 186 -61 249 -61
c115 0 221 47 358 160z" />
    <glyph glyph-name="logicalnot" unicode="&#xac;" horiz-adv-x="1716" 
d="M217 672v237h1282v-622h-235v385h-1047z" />
    <glyph glyph-name="infinity" unicode="&#x221e;" horiz-adv-x="1706" 
d="M856 442c-91 -173 -195 -256 -324 -256c-185 0 -337 183 -337 422c0 251 128 422 315 422c120 0 210 -65 342 -256c95 176 197 258 324 258c187 0 337 -182 337 -422c0 -252 -128 -424 -315 -424c-121 0 -207 61 -342 256zM752 657c-57 89 -134 134 -234 134
c-120 0 -203 -74 -203 -179c0 -103 76 -178 179 -178c95 0 171 66 258 223zM956 561c57 -89 137 -135 234 -135c120 0 203 75 203 180c0 103 -78 178 -179 178c-96 0 -169 -60 -258 -223z" />
    <glyph glyph-name="integral" unicode="&#x222b;" horiz-adv-x="1249" 
d="M362 -248c66 0 106 222 119 667l4 154c11 349 55 600 131 753c75 153 192 230 349 230c140 0 235 -78 235 -190c0 -85 -60 -143 -147 -143c-85 0 -129 52 -129 151c0 25 -2 42 -7 49s-14 11 -26 11c-67 0 -109 -222 -124 -667c-1 -40 -2 -70 -3 -91
c-7 -219 -17 -377 -30 -472c-26 -192 -87 -383 -217 -494c-65 -55 -142 -83 -230 -83c-143 0 -236 75 -236 191c0 87 61 143 154 143c80 0 125 -50 125 -139c0 -8 -1 -16 -2 -24v-3c0 -32 10 -43 34 -43z" />
    <glyph glyph-name="uni2206" unicode="&#x2206;" horiz-adv-x="1427" 
d="M0 0l563 1473h301l563 -1473h-1427zM1040 256l-327 854l-326 -854h653z" />
    <glyph glyph-name="product" unicode="&#x220f;" horiz-adv-x="1612" 
d="M150 -393v1866h1308v-1866h-344v1577h-620v-1577h-344z" />
    <glyph glyph-name="summation" unicode="&#x2211;" horiz-adv-x="1470" 
d="M66 1241v232h1308v-265h-878l620 -645l-622 -690h933v-266h-1386v172l698 772z" />
    <glyph glyph-name="radical" unicode="&#x221a;" horiz-adv-x="1366" 
d="M659 371l496 1343h215v-149h-96l-590 -1606h-119l-307 846l-145 -55l-37 129l360 127z" />
    <glyph glyph-name="uni00B5" unicode="&#xb5;" horiz-adv-x="1507" 
d="M307 -428h-362l301 1548h360l-127 -651c-5 -28 -8 -55 -8 -78c0 -97 59 -151 168 -151c136 0 214 73 246 229l127 651h360l-145 -749c-5 -28 -8 -51 -8 -70c0 -39 18 -57 55 -57c23 0 49 7 76 22l-50 -250c-76 -31 -140 -45 -200 -45c-117 0 -180 49 -207 158
c-83 -105 -184 -158 -301 -158c-99 0 -160 31 -189 95z" />
    <glyph glyph-name="partialdiff" unicode="&#x2202;" horiz-adv-x="1114" 
d="M766 684c28 151 43 280 43 356c0 116 -46 209 -98 209c-23 0 -67 -31 -132 -93s-125 -93 -180 -93c-64 0 -112 50 -112 117c0 92 144 182 313 182c280 0 455 -229 455 -602c0 -459 -240 -785 -580 -785c-243 0 -416 172 -416 416c0 271 179 469 418 469
c135 0 224 -55 289 -176zM698 532c0 152 -50 238 -141 238c-128 0 -225 -203 -225 -483c0 -155 50 -236 143 -236c129 0 223 201 223 481z" />
    <glyph glyph-name="percent" unicode="%" horiz-adv-x="2052" 
d="M594 1520c208 0 346 -125 346 -312c0 -297 -196 -501 -481 -501c-209 0 -346 123 -346 311c0 296 196 502 481 502zM1767 1520l-1235 -1549h-245l1235 1549h245zM563 1352c-115 0 -196 -125 -196 -301c0 -117 41 -177 122 -177c116 0 197 125 197 306
c0 112 -43 172 -123 172zM1593 784c209 0 346 -124 346 -311c0 -299 -194 -502 -479 -502c-209 0 -346 126 -346 314c0 296 194 499 479 499zM1565 616c-115 0 -197 -124 -197 -301c0 -116 40 -174 123 -174c116 0 197 123 197 303c0 113 -43 172 -123 172z" />
    <glyph glyph-name="perthousand" unicode="&#x2030;" horiz-adv-x="2978" 
d="M594 1520c208 0 346 -125 346 -312c0 -297 -196 -501 -481 -501c-209 0 -346 123 -346 311c0 296 196 502 481 502zM1767 1520l-1235 -1549h-245l1235 1549h245zM563 1352c-115 0 -196 -125 -196 -301c0 -117 41 -177 122 -177c116 0 197 125 197 306
c0 112 -43 172 -123 172zM1593 784c209 0 346 -124 346 -311c0 -299 -194 -502 -479 -502c-209 0 -346 126 -346 314c0 296 194 499 479 499zM2523 784c208 0 346 -124 346 -311c0 -297 -194 -502 -481 -502c-209 0 -346 126 -346 314c0 296 196 499 481 499zM1565 616
c-115 0 -197 -124 -197 -301c0 -116 40 -174 123 -174c116 0 197 123 197 303c0 113 -43 172 -123 172zM2492 616c-115 0 -196 -124 -196 -301c0 -116 40 -174 123 -174c116 0 196 123 196 303c0 113 -42 172 -123 172z" />
    <glyph glyph-name="lozenge" unicode="&#x25ca;" horiz-adv-x="1012" 
d="M6 592l500 1061l500 -1061l-500 -1069zM891 592l-385 817l-385 -817l385 -825z" />
    <glyph glyph-name="at" unicode="@" horiz-adv-x="2048" 
d="M1116 88l31 158c-60 -100 -165 -158 -285 -158c-191 0 -307 133 -307 356c0 295 218 543 481 543c111 0 201 -61 228 -153l24 133h203l-133 -693c201 29 354 241 354 496c0 284 -241 483 -592 483c-261 0 -494 -104 -651 -295c-123 -147 -188 -327 -188 -516
c0 -359 244 -610 591 -610c157 0 314 59 453 170l109 -158c-195 -131 -385 -196 -574 -196c-180 0 -352 56 -483 159c-187 144 -285 359 -285 627c0 235 82 458 234 641c195 235 478 365 794 365c221 0 411 -62 559 -185c140 -119 219 -285 219 -458
c0 -420 -298 -709 -741 -709c-3 0 -8 0 -14 -1s-10 -1 -13 -1c-7 0 -11 1 -14 2zM1034 801c-141 0 -258 -162 -258 -355c0 -112 55 -172 158 -172c141 0 254 152 254 347c0 115 -55 180 -154 180z" />
    <glyph glyph-name="ampersand" unicode="&#x26;" horiz-adv-x="1786" 
d="M877 915l297 -374c83 84 143 201 180 354h311c-57 -233 -162 -424 -322 -573l256 -322h-438l-84 106c-157 -91 -313 -135 -477 -135c-327 0 -543 180 -543 445c0 201 124 366 392 518c-35 59 -52 118 -52 182c0 235 222 404 541 404c121 0 248 -19 383 -58l-53 -278
c-116 64 -219 94 -324 94c-115 0 -186 -52 -186 -133c0 -51 40 -130 119 -230zM915 313l-340 430c-107 -68 -163 -159 -163 -260c0 -143 114 -254 266 -254c80 0 158 28 237 84z" />
    <glyph glyph-name="paragraph" unicode="&#xb6;" horiz-adv-x="1303" 
d="M715 1493h520l-328 -1690h-190l299 1543h-189l-301 -1543h-188l164 846c-224 27 -350 155 -350 352c0 287 230 492 563 492z" />
    <glyph glyph-name="section" unicode="&#xa7;" 
d="M1012 1462l-43 -227c-120 53 -214 78 -295 78c-107 0 -174 -44 -174 -111c0 -40 30 -71 106 -106l90 -41c233 -104 303 -192 303 -340c0 -164 -105 -294 -301 -371c76 -48 111 -106 111 -178c0 -216 -203 -361 -518 -361c-112 0 -232 19 -359 58l48 237
c136 -57 242 -86 323 -86c103 0 174 47 174 111c0 21 -8 39 -24 55c-16 15 -50 35 -103 60l-135 61c-159 72 -231 167 -231 303c0 164 100 294 288 373c-69 55 -102 115 -102 186c0 208 203 357 498 357c111 0 225 -19 344 -58zM444 854c-107 -28 -165 -89 -165 -172
c0 -41 16 -75 49 -104c32 -29 102 -64 211 -107c107 36 168 99 168 174c0 41 -19 77 -57 108s-107 64 -206 101z" />
    <glyph glyph-name="copyright" unicode="&#xa9;" horiz-adv-x="2048" 
d="M1024 1485c203 0 379 -74 524 -219s217 -320 217 -525c0 -203 -72 -377 -217 -522s-321 -219 -524 -219s-379 74 -524 219s-217 319 -217 522c0 205 72 380 217 525s321 219 524 219zM1024 1331c-161 0 -300 -58 -416 -174s-174 -253 -174 -416c0 -161 58 -299 174 -415
c115 -115 255 -172 416 -172c164 0 300 56 416 172s174 254 174 415c0 163 -58 300 -174 416c-117 117 -255 174 -416 174zM1323 1126v-215c-76 49 -149 72 -225 72c-151 0 -240 -90 -240 -242c0 -153 88 -241 240 -241c85 0 164 24 225 71v-213c-87 -29 -175 -45 -258 -45
c-281 0 -465 169 -465 428c0 260 184 428 465 428c92 0 177 -14 258 -43z" />
    <glyph glyph-name="registered" unicode="&#xae;" horiz-adv-x="2048" 
d="M1024 1485c203 0 379 -74 524 -219s217 -320 217 -525c0 -203 -72 -377 -217 -522s-321 -219 -524 -219s-379 74 -524 219s-217 319 -217 522c0 205 72 380 217 525s321 219 524 219zM1024 1331c-161 0 -300 -58 -416 -174s-174 -253 -174 -416c0 -161 58 -299 174 -415
c115 -115 255 -172 416 -172c164 0 300 56 416 172s174 254 174 415c0 163 -58 300 -174 416c-117 117 -255 174 -416 174zM719 1174h285c235 0 350 -79 350 -240c0 -115 -73 -192 -201 -215c55 -29 102 -83 141 -160l111 -221h-229l-107 213c-25 52 -48 89 -67 111
c-19 21 -39 32 -58 32h-12v-356h-213v836zM967 1036h-35v-207h35c104 0 157 36 157 105s-50 102 -157 102z" />
    <glyph glyph-name="trademark" unicode="&#x2122;" horiz-adv-x="2048" 
d="M295 1493h518v-143h-174v-435h-172v435h-172v143zM926 1493h227l119 -227l119 227h227v-578h-170v437l-137 -256h-76l-137 256v-437h-172v578z" />
    <glyph glyph-name="degree" unicode="&#xb0;" 
d="M512 1534c88 0 172 -35 236 -98c63 -64 96 -145 96 -236c0 -89 -34 -173 -94 -233c-64 -64 -149 -99 -240 -99c-188 0 -332 144 -332 332s146 334 334 334zM512 1372c-96 0 -172 -76 -172 -172s75 -170 172 -170c96 0 172 75 172 170c0 96 -77 172 -172 172z" />
    <glyph glyph-name="bar" unicode="|" horiz-adv-x="748" 
d="M260 1565h227v-2048h-227v2048z" />
    <glyph glyph-name="brokenbar" unicode="&#xa6;" horiz-adv-x="748" 
d="M260 1432h227v-758h-227v758zM260 408h227v-758h-227v758z" />
    <glyph glyph-name="dagger" unicode="&#x2020;" 
d="M414 1112l73 381h330l-74 -381h289l-45 -238h-289l-209 -1071h-329l207 1071h-289l45 238h291z" />
    <glyph glyph-name="daggerdbl" unicode="&#x2021;" 
d="M412 1112l75 381h330l-74 -381h289l-45 -238h-291l-88 -452h291l-47 -238h-289l-74 -381h-331l73 381h-288l47 238h289l88 452h-289l45 238h289z" />
    <glyph glyph-name="asciicircum" unicode="^" horiz-adv-x="1716" 
d="M735 1493h246l528 -557h-241l-410 301l-409 -301h-242z" />
    <glyph glyph-name="acute" unicode="&#xb4;" 
d="M465 1262l346 376h293l-438 -376h-201z" />
    <glyph glyph-name="breve" unicode="&#x2d8;" 
d="M343 1606h142v-9c0 -87 59 -135 166 -135c108 0 176 47 213 144h152c-45 -191 -187 -297 -395 -297c-187 0 -281 84 -281 245c0 28 0 39 3 52z" />
    <glyph glyph-name="caron" unicode="&#x2c7;" 
d="M1081 1638l-329 -376h-260l-183 376h176l156 -227l244 227h196z" />
    <glyph glyph-name="cedilla" unicode="&#xb8;" 
d="M317 0h142c49 -69 71 -126 71 -182c0 -139 -105 -219 -288 -219c-65 0 -129 9 -197 26l29 156c53 -23 108 -35 159 -35c88 0 142 41 142 104c0 35 -17 77 -58 150z" />
    <glyph glyph-name="circumflex" unicode="&#x2c6;" 
d="M217 1262l328 376h262l182 -376h-178l-156 225l-241 -225h-197z" />
    <glyph glyph-name="dieresis" unicode="&#xa8;" 
d="M311 1339l47 246h238l-49 -246h-236zM707 1339l49 246h235l-49 -246h-235z" />
    <glyph glyph-name="dotaccent" unicode="&#x2d9;" 
d="M489 1339l50 246h274l-49 -246h-275z" />
    <glyph glyph-name="grave" unicode="`" 
d="M268 1638h283l209 -376h-197z" />
    <glyph glyph-name="hungarumlaut" unicode="&#x2dd;" 
d="M293 1262l235 376h250l-311 -376h-174zM635 1262l268 376h250l-344 -376h-174z" />
    <glyph glyph-name="macron" unicode="&#xaf;" 
d="M317 1368l37 188h631l-37 -188h-631z" />
    <glyph glyph-name="ogonek" unicode="&#x2db;" 
d="M307 0h142c-47 -49 -80 -87 -97 -114s-26 -49 -26 -68c0 -45 34 -72 94 -72c49 0 105 11 162 31l-29 -152c-76 -17 -134 -26 -186 -26c-141 0 -217 47 -217 135c0 87 46 166 157 266z" />
    <glyph glyph-name="ring" unicode="&#x2da;" 
d="M946 1524c0 -160 -125 -285 -284 -285c-160 0 -285 125 -285 285s125 284 285 284c159 0 284 -124 284 -284zM811 1524c0 87 -62 149 -149 149c-88 0 -150 -62 -150 -149s63 -150 150 -150s149 62 149 150z" />
    <glyph glyph-name="tilde" unicode="&#x2dc;" 
d="M635 1364l-49 37c-2 1 -5 4 -10 7c-25 20 -48 30 -68 30c-45 0 -83 -49 -96 -129h-140c36 183 127 284 252 284c48 0 91 -17 140 -57l53 -43c24 -20 47 -31 67 -31c51 0 86 46 101 129h139c-35 -181 -125 -284 -250 -284c-45 0 -79 12 -139 57z" />
    <glyph glyph-name="uni0000" horiz-adv-x="0" 
 />
    <glyph glyph-name="uni0000" horiz-adv-x="0" 
 />
    <glyph glyph-name="c6459" 
d="M299 1280l47 246h236l-47 -246h-236zM741 1526h238l-49 -246h-236z" />
    <glyph glyph-name="c6460" 
d="M465 1262l246 264h280l-319 -264h-207z" />
    <glyph glyph-name="c6461" 
d="M618 1313l-49 37c-32 25 -51 32 -75 32c-48 0 -84 -45 -99 -120h-137c35 171 125 266 252 266c49 0 90 -15 137 -51l53 -41c21 -17 47 -27 68 -27c52 0 89 42 102 119h138c-35 -171 -126 -266 -250 -266c-51 0 -89 12 -140 51z" />
    <glyph glyph-name="c6462" 
d="M352 1526h264l144 -264h-178z" />
    <glyph glyph-name="c6463" 
d="M231 1262l244 264h348l152 -264h-170l-164 161l-231 -161h-179z" />
    <glyph glyph-name="c6466" 
d="M1036 1526l-243 -264h-349l-137 264h172l148 -162l231 162h178z" />
    <glyph glyph-name="c6467" 
d="M334 1522v4h143c13 -80 65 -115 170 -115c96 0 170 43 201 115h153c-52 -172 -188 -264 -385 -264c-181 0 -282 93 -282 260z" />
    <glyph glyph-name="c6468" 
d="M479 1280l47 246h275l-47 -246h-275z" />
    </font>
</defs>
</svg>
