<?xml version="1.0" standalone="no"?>
<!DOCTYPE svg PUBLIC "-//W3C//DTD SVG 1.1//EN" "http://www.w3.org/Graphics/SVG/1.1/DTD/svg11.dtd" >
<svg xmlns="http://www.w3.org/2000/svg" xmlns:xlink="http://www.w3.org/1999/xlink" version="1.1">
<metadata>
Created by FontForge 20170924 at Sun Apr 16 17:34:11 2017
 By www-data
Copyright \(c\) 2017 by Hot Action Records. All Rights Reserved.
</metadata>
<defs>
<font id="ArzteSans-Italic" horiz-adv-x="1024" >
  <font-face 
    font-family="A:rzte Sans Roman"
    font-weight="400"
    font-style="italic"
    font-stretch="normal"
    units-per-em="2048"
    panose-1="2 11 6 3 3 3 4 11 2 4"
    ascent="1556"
    descent="-492"
    x-height="1120"
    cap-height="1493"
    bbox="-537 -492 2578 1901"
    underline-thickness="143"
    underline-position="-284"
    slope="-11"
    unicode-range="U+000D-FB02"
  />
<missing-glyph 
d="M840 1556v-2048h-650v2048h650zM682 1419h-338v-68h133v-76h-135v-67h340v67h-135v76h135v68zM547 1155h-205v-213h340v69h-135v144zM477 1085v-74h-67v74h67zM682 886h-340v-67h135v-76h-135v-68h205v144h135v67zM682 763h-68v-135h-272v-69h340v204zM682 514h-205v-115
h70v47h67v-96h-204v164h-68v-232h340v232zM682 159h-340v-231h340v231zM614 92v-97h-204v97h204zM682 -119h-340v-68h143l-143 -96v-68h340v68h-209l143 96h66v68z" />
    <glyph glyph-name=".notdef" 
d="M840 1556v-2048h-650v2048h650zM682 1419h-338v-68h133v-76h-135v-67h340v67h-135v76h135v68zM547 1155h-205v-213h340v69h-135v144zM477 1085v-74h-67v74h67zM682 886h-340v-67h135v-76h-135v-68h205v144h135v67zM682 763h-68v-135h-272v-69h340v204zM682 514h-205v-115
h70v47h67v-96h-204v164h-68v-232h340v232zM682 159h-340v-231h340v231zM614 92v-97h-204v97h204zM682 -119h-340v-68h143l-143 -96v-68h340v68h-209l143 96h66v68z" />
    <glyph glyph-name="A" unicode="A" horiz-adv-x="1401" 
d="M-109 0l863 1493h229l277 -1493h-211l-62 383h-672l-211 -383h-213zM956 551l-129 743l-419 -743h548z" />
    <glyph glyph-name="Aacute" unicode="&#xc1;" horiz-adv-x="1401" 
d="M733 1635l258 264h207l-307 -264h-158zM-109 0l863 1493h229l277 -1493h-211l-62 383h-672l-211 -383h-213zM956 551l-129 743l-419 -743h548z" />
    <glyph glyph-name="Acircumflex" unicode="&#xc2;" horiz-adv-x="1401" 
d="M555 1635l262 266h215l158 -266h-135l-140 178l-209 -178h-151zM-109 0l863 1493h229l277 -1493h-211l-62 383h-672l-211 -383h-213zM956 551l-129 743l-419 -743h548z" />
    <glyph glyph-name="Adieresis" unicode="&#xc4;" horiz-adv-x="1401" 
d="M798 1666l33 203h167l-31 -203h-169zM1058 1666l32 203h168l-32 -203h-168zM529 1664l32 203h168l-32 -203h-168zM-109 0l863 1493h229l277 -1493h-211l-62 383h-672l-211 -383h-213zM956 551l-129 743l-419 -743h548z" />
    <glyph glyph-name="Agrave" unicode="&#xc0;" horiz-adv-x="1401" 
d="M682 1899h182l148 -264h-140zM-109 0l863 1493h229l277 -1493h-211l-62 383h-672l-211 -383h-213zM956 551l-129 743l-419 -743h548z" />
    <glyph glyph-name="Aring" unicode="&#xc5;" horiz-adv-x="1401" 
d="M-109 0l814 1407c-72 49 -111 127 -111 219c0 152 122 275 274 275s275 -123 275 -275c0 -105 -50 -189 -142 -237l259 -1389h-211l-62 383h-672l-211 -383h-213zM1020 1626c0 84 -68 152 -152 152c-85 0 -151 -65 -151 -152c0 -84 66 -151 151 -151c84 0 152 67 152 151
zM956 551l-129 743l-419 -743h548z" />
    <glyph glyph-name="Atilde" unicode="&#xc3;" horiz-adv-x="1401" 
d="M897 1710l-35 25l-1 1c-29 21 -56 32 -81 32c-45 0 -82 -34 -106 -101h-125c47 145 130 219 243 219c47 0 84 -14 132 -47l32 -26c24 -19 49 -27 76 -27c52 0 92 39 107 100h125c-44 -145 -127 -219 -250 -219c-41 0 -76 14 -117 43zM-109 0l863 1493h229l277 -1493h-211
l-62 383h-672l-211 -383h-213zM956 551l-129 743l-419 -743h548z" />
    <glyph glyph-name="AE" unicode="&#xc6;" horiz-adv-x="1995" 
d="M823 1493h1213l-33 -170h-741l-88 -442h712l-33 -170h-712l-105 -541h760l-33 -170h-962l73 383h-526l-235 -383h-205zM1061 1335h-129l-483 -784h458z" />
    <glyph glyph-name="B" unicode="B" horiz-adv-x="1405" 
d="M55 0l291 1493h516c280 0 418 -104 418 -313c0 -192 -131 -346 -324 -375c165 -37 248 -142 248 -318c0 -300 -237 -487 -622 -487h-527zM813 1327h-299l-88 -450h301c215 0 342 99 342 264c0 129 -77 186 -256 186zM719 713h-324l-106 -547h325c244 0 381 117 381 321
c0 157 -83 226 -276 226z" />
    <glyph glyph-name="C" unicode="C" horiz-adv-x="1430" 
d="M1423 1378l-41 -213c-128 129 -269 191 -436 191c-228 0 -399 -108 -524 -332c-80 -144 -123 -308 -123 -471c0 -272 144 -418 412 -418c185 0 355 59 516 178l-47 -239c-159 -68 -321 -103 -484 -103c-383 0 -610 219 -610 590c0 237 85 475 238 664
c163 201 366 295 643 295c171 0 324 -47 456 -142z" />
    <glyph glyph-name="Cacute" unicode="&#x106;" horiz-adv-x="1430" 
d="M817 1635l258 264h207l-307 -264h-158zM1423 1378l-41 -213c-128 129 -269 191 -436 191c-228 0 -399 -108 -524 -332c-80 -144 -123 -308 -123 -471c0 -272 144 -418 412 -418c185 0 355 59 516 178l-47 -239c-159 -68 -321 -103 -484 -103c-383 0 -610 219 -610 590
c0 237 85 475 238 664c163 201 366 295 643 295c171 0 324 -47 456 -142z" />
    <glyph glyph-name="Ccaron" unicode="&#x10c;" horiz-adv-x="1430" 
d="M1335 1901l-262 -266h-213l-158 266h134l139 -178l209 178h151zM1423 1378l-41 -213c-128 129 -269 191 -436 191c-228 0 -399 -108 -524 -332c-80 -144 -123 -308 -123 -471c0 -272 144 -418 412 -418c185 0 355 59 516 178l-47 -239c-159 -68 -321 -103 -484 -103
c-383 0 -610 219 -610 590c0 237 85 475 238 664c163 201 366 295 643 295c171 0 324 -47 456 -142z" />
    <glyph glyph-name="Ccedilla" unicode="&#xc7;" horiz-adv-x="1430" 
d="M967 1520c171 0 324 -47 456 -142l-41 -213c-128 129 -269 191 -436 191c-228 0 -399 -108 -524 -332c-80 -144 -123 -308 -123 -471c0 -272 144 -418 412 -418c185 0 355 59 516 178l-47 -239c-137 -58 -275 -92 -415 -101c36 -56 52 -105 52 -153
c0 -133 -104 -215 -275 -215c-57 0 -115 8 -172 24l23 131c52 -21 104 -32 160 -32c80 0 131 43 131 114c0 34 -11 71 -42 130c-350 20 -556 236 -556 589c0 237 85 475 238 664c163 201 366 295 643 295z" />
    <glyph glyph-name="D" unicode="D" horiz-adv-x="1577" 
d="M55 0l291 1493h434c461 0 699 -197 699 -582c0 -255 -95 -504 -252 -665c-159 -165 -402 -246 -735 -246h-437zM770 1327h-254l-225 -1161h264c452 0 711 272 711 745c0 287 -155 416 -496 416z" />
    <glyph glyph-name="Eth" unicode="&#xd0;" horiz-adv-x="1587" 
d="M229 844l127 649h435c460 0 698 -197 698 -582c0 -253 -95 -502 -254 -665c-159 -165 -400 -246 -733 -246h-436l135 700h-201l29 144h200zM780 1327h-254l-94 -483h336l-29 -144h-336l-102 -534h264c453 0 711 272 711 745c0 287 -155 416 -496 416z" />
    <glyph glyph-name="Dcaron" unicode="&#x10e;" horiz-adv-x="1229" 
d="M1126 -362h-1024v1806h1024v-1806zM217 1329v-1577h795v1577h-795z" />
    <glyph glyph-name="E" unicode="E" horiz-adv-x="1294" 
d="M55 0l291 1493h944l-33 -170h-743l-86 -442h713l-33 -170h-713l-104 -541h760l-33 -170h-963z" />
    <glyph glyph-name="Eacute" unicode="&#xc9;" horiz-adv-x="1294" 
d="M676 1635l258 264h207l-307 -264h-158zM55 0l291 1493h944l-33 -170h-743l-86 -442h713l-33 -170h-713l-104 -541h760l-33 -170h-963z" />
    <glyph glyph-name="Ecircumflex" unicode="&#xca;" horiz-adv-x="1294" 
d="M498 1635l262 266h215l158 -266h-135l-140 178l-209 -178h-151zM55 0l291 1493h944l-33 -170h-743l-86 -442h713l-33 -170h-713l-104 -541h760l-33 -170h-963z" />
    <glyph glyph-name="Edieresis" unicode="&#xcb;" horiz-adv-x="1294" 
d="M568 1667l39 203h204l-41 -203h-202zM863 1666l39 203h202l-38 -203h-203zM55 0l291 1493h944l-33 -170h-743l-86 -442h713l-33 -170h-713l-104 -541h760l-33 -170h-963z" />
    <glyph glyph-name="Egrave" unicode="&#xc8;" horiz-adv-x="1294" 
d="M625 1899h182l148 -264h-140zM55 0l291 1493h944l-33 -170h-743l-86 -442h713l-33 -170h-713l-104 -541h760l-33 -170h-963z" />
    <glyph glyph-name="F" unicode="F" horiz-adv-x="1178" 
d="M55 0l291 1493h856l-33 -170h-655l-86 -440h592l-33 -170h-592l-139 -713h-201z" />
    <glyph glyph-name="G" unicode="G" horiz-adv-x="1587" 
d="M1118 223l78 391h-332l31 166h530l-129 -657c-177 -97 -394 -152 -606 -152c-375 0 -598 219 -598 590c0 308 136 602 363 787c143 116 309 172 516 172c187 0 358 -47 514 -142l-41 -215c-120 125 -286 193 -469 193c-212 0 -369 -79 -496 -248
c-108 -144 -174 -350 -174 -553c0 -279 143 -420 426 -420c141 0 276 31 387 88z" />
    <glyph glyph-name="Gbreve" unicode="&#x11e;" horiz-adv-x="1587" 
d="M684 1901h119c16 -81 65 -115 166 -115c115 0 184 35 223 115h119c-45 -151 -175 -242 -346 -242c-161 0 -254 81 -281 242zM1118 223l78 391h-332l31 166h530l-129 -657c-177 -97 -394 -152 -606 -152c-375 0 -598 219 -598 590c0 308 136 602 363 787
c143 116 309 172 516 172c187 0 358 -47 514 -142l-41 -215c-120 125 -286 193 -469 193c-212 0 -369 -79 -496 -248c-108 -144 -174 -350 -174 -553c0 -279 143 -420 426 -420c141 0 276 31 387 88z" />
    <glyph glyph-name="H" unicode="H" horiz-adv-x="1540" 
d="M55 0l291 1493h203l-119 -612h733l119 612h203l-291 -1493h-203l139 711h-733l-139 -711h-203z" />
    <glyph glyph-name="I" unicode="I" horiz-adv-x="604" 
d="M55 0l291 1493h203l-291 -1493h-203z" />
    <glyph glyph-name="Iacute" unicode="&#xcd;" horiz-adv-x="604" 
d="M319 1635l258 264h207l-307 -264h-158zM55 0l291 1493h203l-291 -1493h-203z" />
    <glyph glyph-name="Icircumflex" unicode="&#xce;" horiz-adv-x="604" 
d="M141 1635l262 266h215l158 -266h-135l-140 178l-209 -178h-151zM55 0l291 1493h203l-291 -1493h-203z" />
    <glyph glyph-name="Idieresis" unicode="&#xcf;" horiz-adv-x="604" 
d="M211 1667l39 203h204l-41 -203h-202zM506 1666l39 203h202l-38 -203h-203zM55 0l291 1493h203l-291 -1493h-203z" />
    <glyph glyph-name="Idotaccent" unicode="&#x130;" horiz-adv-x="604" 
d="M364 1667l41 205h203l-39 -205h-205zM55 0l291 1493h203l-291 -1493h-203z" />
    <glyph glyph-name="Igrave" unicode="&#xcc;" horiz-adv-x="604" 
d="M268 1899h182l148 -264h-140zM55 0l291 1493h203l-291 -1493h-203z" />
    <glyph glyph-name="J" unicode="J" horiz-adv-x="604" 
d="M72 104l270 1389h203l-271 -1389c-71 -361 -229 -514 -530 -514h-80l33 170h63c180 0 263 91 312 344z" />
    <glyph glyph-name="K" unicode="K" horiz-adv-x="1343" 
d="M55 0l291 1493h203l-123 -629l784 629h269l-887 -713l649 -780h-246l-596 727l-141 -727h-203z" />
    <glyph glyph-name="L" unicode="L" horiz-adv-x="1141" 
d="M55 0l289 1493h203l-256 -1325h727l-33 -168h-930z" />
    <glyph glyph-name="Lslash" unicode="&#x141;" horiz-adv-x="1151" 
d="M211 760l143 733h203l-125 -633l352 156l56 -125l-439 -193l-100 -530h727l-33 -168h-929l114 600l-164 -76l-57 123z" />
    <glyph glyph-name="M" unicode="M" horiz-adv-x="1767" 
d="M55 0l291 1493h303l174 -1006l578 1006h311l-291 -1493h-196l254 1309l-586 -1022h-197l-190 1026l-254 -1313h-197z" />
    <glyph glyph-name="N" unicode="N" horiz-adv-x="1532" 
d="M55 0l291 1493h272l412 -1280l250 1280h197l-291 -1493h-273l-411 1288l-250 -1288h-197z" />
    <glyph glyph-name="Ntilde" unicode="&#xd1;" horiz-adv-x="1532" 
d="M934 1710l-35 25l-1 1c-29 21 -56 32 -81 32c-45 0 -82 -34 -106 -101h-125c47 145 130 219 243 219c47 0 84 -14 132 -47l32 -26c24 -19 49 -27 76 -27c52 0 92 39 107 100h125c-44 -145 -127 -219 -250 -219c-41 0 -76 14 -117 43zM55 0l291 1493h272l412 -1280
l250 1280h197l-291 -1493h-273l-411 1288l-250 -1288h-197z" />
    <glyph glyph-name="O" unicode="O" horiz-adv-x="1612" 
d="M672 -29c-367 0 -590 232 -590 609c0 216 87 456 231 632c169 207 376 308 627 308c365 0 590 -230 590 -602c0 -229 -83 -459 -232 -639c-171 -208 -374 -308 -626 -308zM934 1356c-221 0 -389 -106 -514 -326c-80 -140 -123 -301 -123 -461c0 -277 138 -434 381 -434
c219 0 391 109 512 324c81 144 125 306 125 463c0 276 -140 434 -381 434z" />
    <glyph glyph-name="Oacute" unicode="&#xd3;" horiz-adv-x="1612" 
d="M856 1635l258 264h207l-307 -264h-158zM672 -29c-367 0 -590 232 -590 609c0 216 87 456 231 632c169 207 376 308 627 308c365 0 590 -230 590 -602c0 -229 -83 -459 -232 -639c-171 -208 -374 -308 -626 -308zM934 1356c-221 0 -389 -106 -514 -326
c-80 -140 -123 -301 -123 -461c0 -277 138 -434 381 -434c219 0 391 109 512 324c81 144 125 306 125 463c0 276 -140 434 -381 434z" />
    <glyph glyph-name="Ocircumflex" unicode="&#xd4;" horiz-adv-x="1612" 
d="M678 1635l262 266h215l158 -266h-135l-140 178l-209 -178h-151zM672 -29c-367 0 -590 232 -590 609c0 216 87 456 231 632c169 207 376 308 627 308c365 0 590 -230 590 -602c0 -229 -83 -459 -232 -639c-171 -208 -374 -308 -626 -308zM934 1356
c-221 0 -389 -106 -514 -326c-80 -140 -123 -301 -123 -461c0 -277 138 -434 381 -434c219 0 391 109 512 324c81 144 125 306 125 463c0 276 -140 434 -381 434z" />
    <glyph glyph-name="Odieresis" unicode="&#xd6;" horiz-adv-x="1612" 
d="M748 1667l39 203h204l-41 -203h-202zM1043 1666l39 203h202l-38 -203h-203zM672 -29c-367 0 -590 232 -590 609c0 216 87 456 231 632c169 207 376 308 627 308c365 0 590 -230 590 -602c0 -229 -83 -459 -232 -639c-171 -208 -374 -308 -626 -308zM934 1356
c-221 0 -389 -106 -514 -326c-80 -140 -123 -301 -123 -461c0 -277 138 -434 381 -434c219 0 391 109 512 324c81 144 125 306 125 463c0 276 -140 434 -381 434z" />
    <glyph glyph-name="Ograve" unicode="&#xd2;" horiz-adv-x="1612" 
d="M805 1899h182l148 -264h-140zM672 -29c-367 0 -590 232 -590 609c0 216 87 456 231 632c169 207 376 308 627 308c365 0 590 -230 590 -602c0 -229 -83 -459 -232 -639c-171 -208 -374 -308 -626 -308zM934 1356c-221 0 -389 -106 -514 -326
c-80 -140 -123 -301 -123 -461c0 -277 138 -434 381 -434c219 0 391 109 512 324c81 144 125 306 125 463c0 276 -140 434 -381 434z" />
    <glyph glyph-name="Oslash" unicode="&#xd8;" horiz-adv-x="1612" 
d="M-70 33l230 213c-52 107 -78 216 -78 329c0 221 86 457 231 637c167 205 375 308 627 308c173 0 312 -51 424 -154l203 193l90 -99l-209 -198c53 -97 80 -209 80 -340c0 -236 -81 -463 -230 -643c-171 -208 -374 -308 -626 -308c-185 0 -331 57 -432 166l-220 -203z
M319 395l904 840c-60 80 -158 121 -289 121c-220 0 -389 -108 -512 -324c-83 -145 -127 -309 -127 -461c0 -60 8 -117 24 -176zM1288 1116l-907 -846c68 -91 165 -135 297 -135c219 0 391 109 512 324c83 149 125 306 125 469c0 75 -8 136 -27 188z" />
    <glyph glyph-name="Otilde" unicode="&#xd5;" horiz-adv-x="1612" 
d="M1020 1710l-35 25l-1 1c-29 21 -56 32 -81 32c-45 0 -82 -34 -106 -101h-125c47 145 130 219 243 219c47 0 84 -14 132 -47l32 -26c24 -19 49 -27 76 -27c52 0 92 39 107 100h125c-44 -145 -127 -219 -250 -219c-41 0 -76 14 -117 43zM672 -29c-367 0 -590 232 -590 609
c0 216 87 456 231 632c169 207 376 308 627 308c365 0 590 -230 590 -602c0 -229 -83 -459 -232 -639c-171 -208 -374 -308 -626 -308zM934 1356c-221 0 -389 -106 -514 -326c-80 -140 -123 -301 -123 -461c0 -277 138 -434 381 -434c219 0 391 109 512 324
c81 144 125 306 125 463c0 276 -140 434 -381 434z" />
    <glyph glyph-name="OE" unicode="&#x152;" horiz-adv-x="2191" 
d="M1149 1493h1036l-33 -170h-739l-88 -442h711l-33 -170h-711l-104 -541h760l-33 -170h-1090c-216 0 -313 19 -417 66c-209 93 -314 265 -314 516c0 279 128 536 357 716c164 131 398 195 698 195zM985 170l225 1153h-120c-221 0 -396 -52 -512 -149
c-177 -147 -271 -351 -271 -592c0 -271 171 -412 500 -412h178z" />
    <glyph glyph-name="P" unicode="P" horiz-adv-x="1235" 
d="M55 0l291 1493h467c272 0 418 -129 418 -373c0 -328 -221 -520 -602 -520h-254l-117 -600h-203zM780 1327h-264l-108 -561h254c229 0 356 121 356 340c0 140 -87 221 -238 221z" />
    <glyph glyph-name="Thorn" unicode="&#xde;" horiz-adv-x="1245" 
d="M580 338h-256l-66 -338h-203l291 1493h203l-51 -264h266c272 0 418 -129 418 -373c0 -328 -221 -518 -602 -518zM731 1063h-264l-109 -559h254c229 0 357 120 357 340c0 139 -86 219 -238 219z" />
    <glyph glyph-name="Q" unicode="Q" horiz-adv-x="1612" 
d="M911 -264l-172 237c-15 -1 -27 -2 -59 -2c-373 0 -596 227 -596 604c0 223 85 458 229 637c167 205 375 308 627 308c365 0 590 -230 590 -602c0 -401 -241 -767 -596 -904l203 -278h-226zM934 1356c-221 0 -389 -106 -514 -326c-80 -140 -123 -301 -123 -461
c0 -277 138 -434 381 -434c219 0 391 109 512 324c81 144 125 306 125 463c0 276 -140 434 -381 434z" />
    <glyph glyph-name="R" unicode="R" horiz-adv-x="1423" 
d="M887 717c43 -10 78 -35 107 -74c28 -39 61 -118 98 -235l127 -408h-213l-117 383c-60 197 -122 248 -285 248h-223l-123 -631h-203l291 1493h455c276 0 428 -128 428 -363c0 -208 -137 -374 -342 -413zM770 1327h-254l-102 -530h260c204 0 342 124 342 305
c0 145 -87 225 -246 225z" />
    <glyph glyph-name="S" unicode="S" horiz-adv-x="1300" 
d="M1235 1444l-39 -197c-135 72 -269 109 -393 109c-241 0 -395 -114 -395 -289c0 -48 13 -85 40 -110c26 -26 94 -54 203 -83l121 -30c273 -71 365 -167 365 -363c0 -301 -258 -510 -645 -510c-159 0 -319 31 -480 95l41 208c148 -92 297 -139 445 -139
c252 0 417 123 417 303c0 120 -41 170 -241 221l-121 31c-276 72 -358 153 -358 322c0 297 251 508 618 508c143 0 282 -25 422 -76z" />
    <glyph glyph-name="Scaron" unicode="&#x160;" horiz-adv-x="1300" 
d="M1186 1901l-262 -266h-213l-158 266h134l139 -178l209 178h151zM1235 1444l-39 -197c-135 72 -269 109 -393 109c-241 0 -395 -114 -395 -289c0 -48 13 -85 40 -110c26 -26 94 -54 203 -83l121 -30c273 -71 365 -167 365 -363c0 -301 -258 -510 -645 -510
c-159 0 -319 31 -480 95l41 208c148 -92 297 -139 445 -139c252 0 417 123 417 303c0 120 -41 170 -241 221l-121 31c-276 72 -358 153 -358 322c0 297 251 508 618 508c143 0 282 -25 422 -76z" />
    <glyph glyph-name="Scedilla" unicode="&#x15e;" horiz-adv-x="1300" 
d="M803 1356c-241 0 -395 -114 -395 -289c0 -48 13 -85 40 -110c26 -26 94 -54 203 -83l121 -30c273 -71 365 -167 365 -363c0 -274 -214 -472 -544 -505c37 -57 54 -107 54 -156c0 -133 -104 -215 -275 -215c-57 0 -115 8 -172 24l23 131c52 -21 104 -32 160 -32
c80 0 131 43 131 114c0 34 -11 71 -41 129c-153 3 -306 34 -461 95l41 208c148 -92 297 -139 445 -139c252 0 417 123 417 303c0 120 -41 170 -241 221l-121 31c-276 72 -358 153 -358 322c0 297 251 508 618 508c143 0 282 -25 422 -76l-39 -197c-135 72 -269 109 -393 109
z" />
    <glyph glyph-name="T" unicode="T" horiz-adv-x="1251" 
d="M88 1323l33 170h1263l-32 -170h-533l-256 -1323h-203l256 1323h-528z" />
    <glyph glyph-name="U" unicode="U" horiz-adv-x="1499" 
d="M139 561l178 932h203l-176 -907c-15 -81 -20 -130 -20 -170c0 -184 104 -281 303 -281c257 0 393 132 454 451l176 907h203l-180 -932c-79 -403 -293 -590 -676 -590c-299 0 -485 161 -485 418c0 47 7 105 20 172z" />
    <glyph glyph-name="Uacute" unicode="&#xda;" horiz-adv-x="1499" 
d="M766 1635l258 264h207l-307 -264h-158zM139 561l178 932h203l-176 -907c-15 -81 -20 -130 -20 -170c0 -184 104 -281 303 -281c257 0 393 132 454 451l176 907h203l-180 -932c-79 -403 -293 -590 -676 -590c-299 0 -485 161 -485 418c0 47 7 105 20 172z" />
    <glyph glyph-name="Ucircumflex" unicode="&#xdb;" horiz-adv-x="1499" 
d="M588 1635l262 266h215l158 -266h-135l-140 178l-209 -178h-151zM139 561l178 932h203l-176 -907c-15 -81 -20 -130 -20 -170c0 -184 104 -281 303 -281c257 0 393 132 454 451l176 907h203l-180 -932c-79 -403 -293 -590 -676 -590c-299 0 -485 161 -485 418
c0 47 7 105 20 172z" />
    <glyph glyph-name="Udieresis" unicode="&#xdc;" horiz-adv-x="1499" 
d="M658 1667l39 203h204l-41 -203h-202zM953 1666l39 203h202l-38 -203h-203zM139 561l178 932h203l-176 -907c-15 -81 -20 -130 -20 -170c0 -184 104 -281 303 -281c257 0 393 132 454 451l176 907h203l-180 -932c-79 -403 -293 -590 -676 -590c-299 0 -485 161 -485 418
c0 47 7 105 20 172z" />
    <glyph glyph-name="Ugrave" unicode="&#xd9;" horiz-adv-x="1499" 
d="M715 1899h182l148 -264h-140zM139 561l178 932h203l-176 -907c-15 -81 -20 -130 -20 -170c0 -184 104 -281 303 -281c257 0 393 132 454 451l176 907h203l-180 -932c-79 -403 -293 -590 -676 -590c-299 0 -485 161 -485 418c0 47 7 105 20 172z" />
    <glyph glyph-name="V" unicode="V" horiz-adv-x="1401" 
d="M657 0h-235l-262 1493h198l217 -1284l725 1284h220z" />
    <glyph glyph-name="W" unicode="W" horiz-adv-x="2025" 
d="M289 0l-92 1493h196l72 -1270l563 1270h225l74 -1270l557 1270h205l-664 -1493h-254l-69 1245l-559 -1245h-254z" />
    <glyph glyph-name="X" unicode="X" horiz-adv-x="1403" 
d="M610 803l-329 690h204l256 -539l463 539h236l-615 -713l371 -780h-203l-301 629l-545 -629h-235z" />
    <glyph glyph-name="Y" unicode="Y" horiz-adv-x="1251" 
d="M504 711l-375 782h217l279 -614l532 614h227l-677 -782l-138 -711h-202z" />
    <glyph glyph-name="Yacute" unicode="&#xdd;" horiz-adv-x="1251" 
d="M643 1635l258 264h207l-307 -264h-158zM504 711l-375 782h217l279 -614l532 614h227l-677 -782l-138 -711h-202z" />
    <glyph glyph-name="Ydieresis" unicode="&#x178;" horiz-adv-x="1251" 
d="M535 1667l39 203h204l-41 -203h-202zM830 1666l39 203h202l-38 -203h-203zM504 711l-375 782h217l279 -614l532 614h227l-677 -782l-138 -711h-202z" />
    <glyph glyph-name="Z" unicode="Z" horiz-adv-x="1403" 
d="M236 1323l32 170h1172l-29 -154l-1157 -1169h952l-32 -170h-1219l29 154l1157 1169h-905z" />
    <glyph glyph-name="Zcaron" unicode="&#x17d;" horiz-adv-x="1403" 
d="M1237 1901l-262 -266h-213l-158 266h134l139 -178l209 178h151zM236 1323l32 170h1172l-29 -154l-1157 -1169h952l-32 -170h-1219l29 154l1157 1169h-905z" />
    <glyph glyph-name="a" unicode="a" horiz-adv-x="1255" 
d="M1100 639l-125 -639h-184l34 170c-108 -133 -246 -199 -415 -199c-191 0 -326 129 -326 312c0 261 221 424 588 424h256l10 49c3 11 4 20 4 47c0 119 -101 188 -276 188c-120 0 -246 -31 -379 -92l32 170c139 52 272 78 396 78c264 0 405 -117 405 -336
c0 -44 -7 -105 -20 -172zM893 522l8 41h-184c-301 0 -443 -79 -443 -248c0 -117 78 -188 209 -188c200 0 362 155 410 395z" />
    <glyph glyph-name="aacute" unicode="&#xe1;" horiz-adv-x="1255" 
d="M616 1262l354 376h199l-399 -376h-154zM1100 639l-125 -639h-184l34 170c-108 -133 -246 -199 -415 -199c-191 0 -326 129 -326 312c0 261 221 424 588 424h256l10 49c3 11 4 20 4 47c0 119 -101 188 -276 188c-120 0 -246 -31 -379 -92l32 170c139 52 272 78 396 78
c264 0 405 -117 405 -336c0 -44 -7 -105 -20 -172zM893 522l8 41h-184c-301 0 -443 -79 -443 -248c0 -117 78 -188 209 -188c200 0 362 155 410 395z" />
    <glyph glyph-name="acircumflex" unicode="&#xe2;" horiz-adv-x="1255" 
d="M438 1262l319 376h148l172 -376h-139l-127 237l-234 -237h-139zM1100 639l-125 -639h-184l34 170c-108 -133 -246 -199 -415 -199c-191 0 -326 129 -326 312c0 261 221 424 588 424h256l10 49c3 11 4 20 4 47c0 119 -101 188 -276 188c-120 0 -246 -31 -379 -92l32 170
c139 52 272 78 396 78c264 0 405 -117 405 -336c0 -44 -7 -105 -20 -172zM893 522l8 41h-184c-301 0 -443 -79 -443 -248c0 -117 78 -188 209 -188c200 0 362 155 410 395z" />
    <glyph glyph-name="adieresis" unicode="&#xe4;" horiz-adv-x="1255" 
d="M671 1353l33 203h167l-31 -203h-169zM931 1353l32 203h168l-32 -203h-168zM402 1351l32 203h168l-32 -203h-168zM1100 639l-125 -639h-184l34 170c-108 -133 -246 -199 -415 -199c-191 0 -326 129 -326 312c0 261 221 424 588 424h256l10 49c3 11 4 20 4 47
c0 119 -101 188 -276 188c-120 0 -246 -31 -379 -92l32 170c139 52 272 78 396 78c264 0 405 -117 405 -336c0 -44 -7 -105 -20 -172zM893 522l8 41h-184c-301 0 -443 -79 -443 -248c0 -117 78 -188 209 -188c200 0 362 155 410 395z" />
    <glyph glyph-name="agrave" unicode="&#xe0;" horiz-adv-x="1255" 
d="M489 1638h197l209 -374h-154zM1100 639l-125 -639h-184l34 170c-108 -133 -246 -199 -415 -199c-191 0 -326 129 -326 312c0 261 221 424 588 424h256l10 49c3 11 4 20 4 47c0 119 -101 188 -276 188c-120 0 -246 -31 -379 -92l32 170c139 52 272 78 396 78
c264 0 405 -117 405 -336c0 -44 -7 -105 -20 -172zM893 522l8 41h-184c-301 0 -443 -79 -443 -248c0 -117 78 -188 209 -188c200 0 362 155 410 395z" />
    <glyph glyph-name="aring" unicode="&#xe5;" horiz-adv-x="1255" 
d="M1077 1524c0 -153 -120 -275 -275 -275c-153 0 -274 122 -274 275c0 155 121 274 274 274c155 0 275 -119 275 -274zM954 1524c0 85 -65 151 -152 151c-88 0 -151 -63 -151 -151s63 -152 151 -152c89 0 152 64 152 152zM1100 639l-125 -639h-184l34 170
c-108 -133 -246 -199 -415 -199c-191 0 -326 129 -326 312c0 261 221 424 588 424h256l10 49c3 11 4 20 4 47c0 119 -101 188 -276 188c-120 0 -246 -31 -379 -92l32 170c139 52 272 78 396 78c264 0 405 -117 405 -336c0 -44 -7 -105 -20 -172zM893 522l8 41h-184
c-301 0 -443 -79 -443 -248c0 -117 78 -188 209 -188c200 0 362 155 410 395z" />
    <glyph glyph-name="atilde" unicode="&#xe3;" horiz-adv-x="1255" 
d="M774 1370l-45 55c-17 21 -40 35 -61 39c-52 0 -84 -46 -107 -155h-125c40 183 129 282 250 282c49 0 92 -21 127 -61l47 -55c16 -21 34 -32 59 -39c25 0 46 12 63 36c16 23 31 63 44 119h125c-39 -183 -127 -282 -250 -282c-51 0 -96 21 -127 61zM1100 639l-125 -639
h-184l34 170c-108 -133 -246 -199 -415 -199c-191 0 -326 129 -326 312c0 261 221 424 588 424h256l10 49c3 11 4 20 4 47c0 119 -101 188 -276 188c-120 0 -246 -31 -379 -92l32 170c139 52 272 78 396 78c264 0 405 -117 405 -336c0 -44 -7 -105 -20 -172zM893 522l8 41
h-184c-301 0 -443 -79 -443 -248c0 -117 78 -188 209 -188c200 0 362 155 410 395z" />
    <glyph glyph-name="ae" unicode="&#xe6;" horiz-adv-x="2038" 
d="M287 899l32 170c139 52 272 78 396 78c192 0 315 -59 375 -182c115 120 266 182 442 182c253 0 416 -164 416 -420c0 -61 -9 -131 -25 -211h-856c-8 -51 -10 -77 -10 -98c0 -185 119 -291 327 -291c160 0 305 37 426 106l-34 -182c-133 -53 -275 -80 -420 -80
c-224 0 -376 77 -451 228c-136 -157 -278 -228 -454 -228c-232 0 -367 115 -367 312c0 261 221 424 588 424h256l10 49c3 11 4 20 4 47c0 119 -101 188 -276 188c-120 0 -246 -31 -379 -92zM1102 659l661 1c4 21 6 44 6 67c0 163 -101 264 -266 264
c-183 0 -329 -120 -401 -332zM893 522l8 41h-184c-301 0 -443 -79 -443 -248c0 -117 78 -188 209 -188c200 0 362 155 410 395z" />
    <glyph glyph-name="b" unicode="b" horiz-adv-x="1300" 
d="M561 1556l-119 -606c91 123 236 197 385 197c229 0 375 -166 375 -430c0 -216 -82 -427 -229 -584c-96 -104 -226 -162 -363 -162c-145 0 -252 67 -319 199l-33 -170h-184l303 1556h184zM1014 684c0 193 -94 309 -250 309c-113 0 -216 -57 -289 -162
c-77 -111 -125 -266 -125 -411c0 -184 93 -295 246 -295c116 0 216 55 291 160c76 109 127 267 127 399z" />
    <glyph glyph-name="c" unicode="c" horiz-adv-x="1126" 
d="M1098 1077l-37 -182c-88 64 -188 96 -295 96c-117 0 -229 -43 -301 -119c-115 -116 -180 -279 -180 -446c0 -201 100 -299 305 -299c101 0 216 31 340 92l-35 -182c-107 -44 -219 -66 -338 -66c-297 0 -463 154 -463 430c0 232 84 428 248 584c112 107 265 162 444 162
c104 0 205 -23 312 -70z" />
    <glyph glyph-name="cacute" unicode="&#x107;" horiz-adv-x="1126" 
d="M635 1262l354 376h199l-399 -376h-154zM1098 1077l-37 -182c-88 64 -188 96 -295 96c-117 0 -229 -43 -301 -119c-115 -116 -180 -279 -180 -446c0 -201 100 -299 305 -299c101 0 216 31 340 92l-35 -182c-107 -44 -219 -66 -338 -66c-297 0 -463 154 -463 430
c0 232 84 428 248 584c112 107 265 162 444 162c104 0 205 -23 312 -70z" />
    <glyph glyph-name="ccaron" unicode="&#x10d;" horiz-adv-x="1126" 
d="M1168 1638l-320 -376h-147l-172 376h141l127 -237l231 237h140zM1098 1077l-37 -182c-88 64 -188 96 -295 96c-117 0 -229 -43 -301 -119c-115 -116 -180 -279 -180 -446c0 -201 100 -299 305 -299c101 0 216 31 340 92l-35 -182c-107 -44 -219 -66 -338 -66
c-297 0 -463 154 -463 430c0 232 84 428 248 584c112 107 265 162 444 162c104 0 205 -23 312 -70z" />
    <glyph glyph-name="ccedilla" unicode="&#xe7;" horiz-adv-x="1126" 
d="M766 991c-117 0 -229 -43 -301 -119c-115 -116 -180 -279 -180 -446c0 -201 100 -299 305 -299c101 0 216 31 340 92l-35 -182c-90 -37 -183 -58 -281 -64c36 -56 52 -105 52 -153c0 -133 -104 -215 -275 -215c-57 0 -115 8 -172 24l23 131c52 -21 104 -32 160 -32
c80 0 131 43 131 114c0 34 -12 72 -42 132c-256 21 -397 172 -397 427c0 232 84 428 248 584c112 107 265 162 444 162c104 0 205 -23 312 -70l-37 -182c-88 64 -188 96 -295 96z" />
    <glyph glyph-name="d" unicode="d" horiz-adv-x="1300" 
d="M821 0l35 168c-99 -129 -235 -197 -399 -197c-224 0 -363 163 -363 428c0 221 81 427 230 586c99 105 226 162 362 162c144 0 258 -72 318 -201l120 610h185l-303 -1556h-185zM285 432c0 -193 92 -307 247 -307c115 0 214 56 289 164c79 112 127 268 127 411
c0 185 -93 295 -246 295c-116 0 -219 -56 -290 -159c-77 -111 -127 -269 -127 -404z" />
    <glyph glyph-name="eth" unicode="&#xf0;" horiz-adv-x="1253" 
d="M889 1327l127 -186c91 -136 137 -284 137 -441c0 -181 -54 -356 -154 -489c-112 -155 -281 -240 -473 -240c-264 0 -434 170 -434 430c0 160 57 322 158 457c117 155 284 240 469 240c27 0 65 -3 118 -10l-124 180l-351 -107l-32 94l327 97l-139 204h217l96 -145l336 109
l35 -95zM913 915c-57 23 -115 33 -174 33c-269 0 -456 -221 -456 -540c0 -184 89 -281 258 -281c243 0 426 242 426 567c0 91 -17 161 -54 221z" />
    <glyph glyph-name="dcroat" unicode="&#x111;" horiz-adv-x="1300" 
d="M821 0l35 168c-99 -129 -235 -197 -399 -197c-224 0 -363 163 -363 428c0 221 81 427 230 586c99 105 226 162 362 162c144 0 258 -72 318 -201l67 338h-326l27 123h326l26 149h185l-27 -149h154l-27 -123h-154l-249 -1284h-185zM285 432c0 -193 92 -307 247 -307
c115 0 214 56 289 164c79 112 127 268 127 411c0 185 -93 295 -246 295c-116 0 -219 -56 -290 -159c-77 -111 -127 -269 -127 -404z" />
    <glyph glyph-name="e" unicode="e" horiz-adv-x="1260" 
d="M1145 516h-856c-8 -51 -10 -77 -10 -98c0 -185 119 -291 327 -291c160 0 303 37 426 106l-35 -182c-132 -53 -274 -80 -419 -80c-311 0 -484 155 -484 428c0 233 85 437 246 594c104 99 253 154 414 154c253 0 415 -164 415 -420c0 -61 -8 -131 -24 -211zM324 659l661 1
c4 21 6 44 6 67c0 163 -102 264 -266 264c-183 0 -329 -120 -401 -332z" />
    <glyph glyph-name="eacute" unicode="&#xe9;" horiz-adv-x="1260" 
d="M627 1262l354 376h199l-399 -376h-154zM1145 516h-856c-8 -51 -10 -77 -10 -98c0 -185 119 -291 327 -291c160 0 303 37 426 106l-35 -182c-132 -53 -274 -80 -419 -80c-311 0 -484 155 -484 428c0 233 85 437 246 594c104 99 253 154 414 154c253 0 415 -164 415 -420
c0 -61 -8 -131 -24 -211zM324 659l661 1c4 21 6 44 6 67c0 163 -102 264 -266 264c-183 0 -329 -120 -401 -332z" />
    <glyph glyph-name="ecircumflex" unicode="&#xea;" horiz-adv-x="1260" 
d="M449 1262l319 376h148l172 -376h-139l-127 237l-234 -237h-139zM1145 516h-856c-8 -51 -10 -77 -10 -98c0 -185 119 -291 327 -291c160 0 303 37 426 106l-35 -182c-132 -53 -274 -80 -419 -80c-311 0 -484 155 -484 428c0 233 85 437 246 594c104 99 253 154 414 154
c253 0 415 -164 415 -420c0 -61 -8 -131 -24 -211zM324 659l661 1c4 21 6 44 6 67c0 163 -102 264 -266 264c-183 0 -329 -120 -401 -332z" />
    <glyph glyph-name="edieresis" unicode="&#xeb;" horiz-adv-x="1260" 
d="M488 1350l39 202h205l-41 -202h-203zM879 1350l39 202h203l-39 -202h-203zM1145 516h-856c-8 -51 -10 -77 -10 -98c0 -185 119 -291 327 -291c160 0 303 37 426 106l-35 -182c-132 -53 -274 -80 -419 -80c-311 0 -484 155 -484 428c0 233 85 437 246 594
c104 99 253 154 414 154c253 0 415 -164 415 -420c0 -61 -8 -131 -24 -211zM324 659l661 1c4 21 6 44 6 67c0 163 -102 264 -266 264c-183 0 -329 -120 -401 -332z" />
    <glyph glyph-name="egrave" unicode="&#xe8;" horiz-adv-x="1260" 
d="M500 1638h197l209 -374h-154zM1145 516h-856c-8 -51 -10 -77 -10 -98c0 -185 119 -291 327 -291c160 0 303 37 426 106l-35 -182c-132 -53 -274 -80 -419 -80c-311 0 -484 155 -484 428c0 233 85 437 246 594c104 99 253 154 414 154c253 0 415 -164 415 -420
c0 -61 -8 -131 -24 -211zM324 659l661 1c4 21 6 44 6 67c0 163 -102 264 -266 264c-183 0 -329 -120 -401 -332z" />
    <glyph glyph-name="f" unicode="f" horiz-adv-x="721" 
d="M805 1556h174l-29 -153h-176c-133 0 -184 -44 -213 -184l-20 -99h303l-27 -143h-303l-190 -977h-185l191 977h-176l26 143h176l15 78c51 264 161 358 434 358z" />
    <glyph glyph-name="g" unicode="g" horiz-adv-x="1300" 
d="M1036 1120h185l-191 -981c-73 -380 -278 -565 -629 -565c-129 0 -239 19 -335 59l34 179c91 -59 191 -86 306 -86c233 0 388 131 436 370l16 84c-103 -117 -242 -180 -399 -180c-227 0 -365 159 -365 422c0 207 82 414 225 567c95 101 226 158 363 158
c151 0 267 -73 322 -201zM944 709c0 181 -89 284 -246 284c-97 0 -189 -41 -252 -110c-101 -115 -161 -278 -161 -443c0 -184 89 -286 250 -286c233 0 409 238 409 555z" />
    <glyph glyph-name="gbreve" unicode="&#x11f;" horiz-adv-x="1300" 
d="M551 1608h114v-15c0 -91 55 -135 170 -135c113 0 185 47 226 150h116c-43 -185 -173 -287 -368 -287c-171 0 -260 87 -260 254c0 4 0 10 1 17s1 13 1 16zM1036 1120h185l-191 -981c-73 -380 -278 -565 -629 -565c-129 0 -239 19 -335 59l34 179c91 -59 191 -86 306 -86
c233 0 388 131 436 370l16 84c-103 -117 -242 -180 -399 -180c-227 0 -365 159 -365 422c0 207 82 414 225 567c95 101 226 158 363 158c151 0 267 -73 322 -201zM944 709c0 181 -89 284 -246 284c-97 0 -189 -41 -252 -110c-101 -115 -161 -278 -161 -443
c0 -184 89 -286 250 -286c233 0 409 238 409 555z" />
    <glyph glyph-name="h" unicode="h" horiz-adv-x="1298" 
d="M1141 676l-131 -676h-185l131 669c12 63 19 112 19 140c0 112 -74 178 -201 178c-197 0 -354 -145 -397 -366l-121 -621h-184l303 1556h184l-119 -612c93 125 248 203 408 203c197 0 311 -112 311 -305c0 -48 -6 -102 -18 -166z" />
    <glyph glyph-name="i" unicode="i" horiz-adv-x="569" 
d="M330 1323l45 233h184l-45 -233h-184zM72 0l219 1120h184l-219 -1120h-184z" />
    <glyph glyph-name="dotlessi" unicode="&#x131;" horiz-adv-x="569" 
d="M72 0l219 1120h184l-219 -1120h-184z" />
    <glyph glyph-name="iacute" unicode="&#xed;" horiz-adv-x="569" 
d="M258 1262l354 376h199l-399 -376h-154zM72 0l219 1120h184l-219 -1120h-184z" />
    <glyph glyph-name="icircumflex" unicode="&#xee;" horiz-adv-x="569" 
d="M80 1262l319 376h148l172 -376h-139l-127 237l-234 -237h-139zM72 0l219 1120h184l-219 -1120h-184z" />
    <glyph glyph-name="idieresis" unicode="&#xef;" horiz-adv-x="569" 
d="M119 1350l39 202h205l-41 -202h-203zM510 1350l39 202h203l-39 -202h-203zM72 0l219 1120h184l-219 -1120h-184z" />
    <glyph glyph-name="igrave" unicode="&#xec;" horiz-adv-x="569" 
d="M131 1638h197l209 -374h-154zM72 0l219 1120h184l-219 -1120h-184z" />
    <glyph glyph-name="j" unicode="j" horiz-adv-x="569" 
d="M338 1323l45 233h184l-45 -233h-184zM76 -20l221 1140h184l-221 -1140l-1 -5c-49 -255 -101 -317 -216 -365c-58 -24 -126 -36 -205 -36h-69l30 156h47c144 0 189 37 230 250z" />
    <glyph glyph-name="k" unicode="k" horiz-adv-x="1186" 
d="M72 0l303 1556h184l-176 -907l631 471h239l-704 -536l514 -584h-223l-478 547l-106 -547h-184z" />
    <glyph glyph-name="l" unicode="l" horiz-adv-x="569" 
d="M72 0l303 1556h184l-303 -1556h-184z" />
    <glyph glyph-name="lslash" unicode="&#x142;" horiz-adv-x="588" 
d="M254 856l135 700h184l-116 -606l141 64l53 -119l-223 -102l-158 -793h-184l137 700l-135 -61l-53 119z" />
    <glyph glyph-name="m" unicode="m" horiz-adv-x="1995" 
d="M1839 676l-131 -676h-184l129 670c11 57 16 98 16 127c0 120 -70 190 -190 190c-179 0 -334 -147 -375 -362l-123 -625h-184l131 670c11 49 16 92 16 125c0 121 -71 192 -188 192c-181 0 -336 -147 -377 -362l-123 -625h-184l219 1120h184l-35 -174
c100 131 238 201 391 201c163 0 274 -90 295 -242c112 157 264 242 428 242c192 0 301 -115 301 -318c0 -44 -5 -98 -16 -153z" />
    <glyph glyph-name="n" unicode="n" horiz-adv-x="1298" 
d="M1141 676l-131 -676h-185l131 669c12 63 19 112 19 140c0 112 -74 178 -201 178c-197 0 -351 -141 -395 -366l-123 -621h-184l217 1120h184l-37 -176c103 129 253 203 412 203c197 0 311 -112 311 -305c0 -48 -6 -102 -18 -166z" />
    <glyph glyph-name="ntilde" unicode="&#xf1;" horiz-adv-x="1298" 
d="M811 1370l-45 55c-17 21 -40 35 -61 39c-52 0 -84 -46 -107 -155h-125c40 183 129 282 250 282c49 0 92 -21 127 -61l47 -55c16 -21 34 -32 59 -39c25 0 46 12 63 36c16 23 31 63 44 119h125c-39 -183 -127 -282 -250 -282c-51 0 -96 21 -127 61zM1141 676l-131 -676
h-185l131 669c12 63 19 112 19 140c0 112 -74 178 -201 178c-197 0 -351 -141 -395 -366l-123 -621h-184l217 1120h184l-37 -176c103 129 253 203 412 203c197 0 311 -112 311 -305c0 -48 -6 -102 -18 -166z" />
    <glyph glyph-name="o" unicode="o" horiz-adv-x="1253" 
d="M520 -29c-263 0 -426 173 -426 453c0 163 58 346 142 461c132 179 292 262 497 262c255 0 426 -174 426 -430c0 -177 -57 -368 -141 -484c-131 -179 -290 -262 -498 -262zM285 430c0 -203 84 -303 256 -303c247 0 428 240 428 571c0 193 -88 293 -256 293
c-139 0 -245 -64 -330 -196c-63 -99 -98 -230 -98 -365z" />
    <glyph glyph-name="oacute" unicode="&#xf3;" horiz-adv-x="1253" 
d="M631 1262l354 376h199l-399 -376h-154zM520 -29c-263 0 -426 173 -426 453c0 163 58 346 142 461c132 179 292 262 497 262c255 0 426 -174 426 -430c0 -177 -57 -368 -141 -484c-131 -179 -290 -262 -498 -262zM285 430c0 -203 84 -303 256 -303c247 0 428 240 428 571
c0 193 -88 293 -256 293c-139 0 -245 -64 -330 -196c-63 -99 -98 -230 -98 -365z" />
    <glyph glyph-name="ocircumflex" unicode="&#xf4;" horiz-adv-x="1253" 
d="M453 1262l319 376h148l172 -376h-139l-127 237l-234 -237h-139zM520 -29c-263 0 -426 173 -426 453c0 163 58 346 142 461c132 179 292 262 497 262c255 0 426 -174 426 -430c0 -177 -57 -368 -141 -484c-131 -179 -290 -262 -498 -262zM285 430c0 -203 84 -303 256 -303
c247 0 428 240 428 571c0 193 -88 293 -256 293c-139 0 -245 -64 -330 -196c-63 -99 -98 -230 -98 -365z" />
    <glyph glyph-name="odieresis" unicode="&#xf6;" horiz-adv-x="1253" 
d="M492 1350l39 202h205l-41 -202h-203zM883 1350l39 202h203l-39 -202h-203zM520 -29c-263 0 -426 173 -426 453c0 163 58 346 142 461c132 179 292 262 497 262c255 0 426 -174 426 -430c0 -177 -57 -368 -141 -484c-131 -179 -290 -262 -498 -262zM285 430
c0 -203 84 -303 256 -303c247 0 428 240 428 571c0 193 -88 293 -256 293c-139 0 -245 -64 -330 -196c-63 -99 -98 -230 -98 -365z" />
    <glyph glyph-name="ograve" unicode="&#xf2;" horiz-adv-x="1253" 
d="M504 1638h197l209 -374h-154zM520 -29c-263 0 -426 173 -426 453c0 163 58 346 142 461c132 179 292 262 497 262c255 0 426 -174 426 -430c0 -177 -57 -368 -141 -484c-131 -179 -290 -262 -498 -262zM285 430c0 -203 84 -303 256 -303c247 0 428 240 428 571
c0 193 -88 293 -256 293c-139 0 -245 -64 -330 -196c-63 -99 -98 -230 -98 -365z" />
    <glyph glyph-name="oslash" unicode="&#xf8;" horiz-adv-x="1253" 
d="M-29 -10l183 182c-40 65 -60 150 -60 250c0 163 58 348 142 463c131 179 289 262 497 262c116 0 216 -35 293 -103l162 164l86 -86l-172 -172c37 -73 57 -157 57 -248c0 -165 -58 -354 -141 -469c-129 -179 -287 -262 -498 -262c-116 0 -215 36 -291 105l-172 -170z
M295 315l606 607c-49 47 -111 69 -188 69c-248 0 -426 -238 -426 -571c0 -31 1 -54 2 -67c1 -14 3 -27 6 -38zM961 809l-609 -610c52 -49 110 -72 189 -72c252 0 428 239 428 590c0 52 -3 72 -8 92z" />
    <glyph glyph-name="otilde" unicode="&#xf5;" horiz-adv-x="1253" 
d="M789 1370l-45 55c-17 21 -40 35 -61 39c-52 0 -84 -46 -107 -155h-125c40 183 129 282 250 282c49 0 92 -21 127 -61l47 -55c16 -21 34 -32 59 -39c25 0 46 12 63 36c16 23 31 63 44 119h125c-39 -183 -127 -282 -250 -282c-51 0 -96 21 -127 61zM520 -29
c-263 0 -426 173 -426 453c0 163 58 346 142 461c132 179 292 262 497 262c255 0 426 -174 426 -430c0 -177 -57 -368 -141 -484c-131 -179 -290 -262 -498 -262zM285 430c0 -203 84 -303 256 -303c247 0 428 240 428 571c0 193 -88 293 -256 293c-139 0 -245 -64 -330 -196
c-63 -99 -98 -230 -98 -365z" />
    <glyph glyph-name="oe" unicode="&#x153;" horiz-adv-x="2105" 
d="M1991 516h-856c-5 -36 -9 -70 -9 -98c0 -185 118 -291 326 -291c160 0 307 37 428 106l-37 -182c-132 -52 -273 -80 -418 -80c-215 0 -375 77 -438 209c-135 -140 -287 -209 -467 -209c-255 0 -426 174 -426 430c0 183 54 367 142 484c132 179 292 262 497 262
c173 0 311 -81 383 -225c132 149 294 225 483 225c255 0 416 -164 416 -420c0 -61 -8 -131 -24 -211zM285 430c0 -203 84 -303 256 -303c247 0 428 237 428 569c0 196 -87 295 -256 295c-139 0 -245 -64 -330 -196c-63 -99 -98 -230 -98 -365zM1169 659l662 1
c4 21 6 44 6 67c0 163 -102 264 -266 264c-184 0 -329 -120 -402 -332z" />
    <glyph glyph-name="p" unicode="p" horiz-adv-x="1300" 
d="M479 1120l-33 -170c99 129 234 197 398 197c229 0 362 -157 362 -428c0 -221 -81 -427 -229 -586c-99 -105 -226 -162 -363 -162c-159 0 -268 66 -321 197l-115 -594h-184l301 1546h184zM1016 690c0 196 -88 303 -248 303c-109 0 -212 -57 -289 -164
c-76 -105 -125 -266 -125 -413c0 -187 89 -291 246 -291c116 0 218 56 289 160c76 109 127 270 127 405z" />
    <glyph glyph-name="thorn" unicode="&#xfe;" horiz-adv-x="1300" 
d="M559 1556l-113 -606c99 129 234 197 398 197c229 0 362 -157 362 -428c0 -221 -81 -427 -229 -586c-99 -105 -226 -162 -363 -162c-159 0 -268 66 -321 197l-115 -594h-184l381 1982h184zM1016 690c0 196 -88 303 -248 303c-109 0 -212 -57 -289 -164
c-76 -105 -125 -266 -125 -413c0 -187 89 -291 246 -291c116 0 218 56 289 160c76 109 127 270 127 405z" />
    <glyph glyph-name="q" unicode="q" horiz-adv-x="1300" 
d="M739 -422l115 590c-99 -129 -234 -197 -397 -197c-227 0 -363 162 -363 430c0 216 82 424 230 584c96 104 225 162 362 162c165 0 272 -65 320 -197l32 168h185l-299 -1540h-185zM285 428c0 -197 85 -303 241 -303c232 0 420 254 420 571c0 192 -87 297 -246 297
c-116 0 -217 -55 -290 -159c-77 -109 -125 -267 -125 -406z" />
    <glyph glyph-name="r" unicode="r" horiz-adv-x="842" 
d="M948 1132l-35 -182c-37 20 -86 31 -141 31c-196 0 -355 -161 -403 -410l-113 -571h-184l219 1120h184l-35 -174c97 129 238 201 391 201c40 0 78 -4 117 -15z" />
    <glyph glyph-name="s" unicode="s" horiz-adv-x="1067" 
d="M1024 1087l-35 -174c-97 53 -206 80 -321 80c-193 0 -312 -71 -312 -184c0 -66 65 -117 194 -152c10 -3 17 -5 22 -6l59 -18c245 -68 307 -131 307 -260c0 -237 -207 -402 -512 -402c-119 0 -246 22 -403 70l36 190c135 -69 267 -106 387 -106c180 0 304 86 304 205
c0 64 -74 116 -222 155l-82 21c-187 49 -270 127 -270 252c0 239 192 389 500 389c121 0 236 -20 348 -60z" />
    <glyph glyph-name="scaron" unicode="&#x161;" horiz-adv-x="1067" 
d="M1072 1638l-320 -376h-147l-172 376h141l127 -237l231 237h140zM1024 1087l-35 -174c-97 53 -206 80 -321 80c-193 0 -312 -71 -312 -184c0 -66 65 -117 194 -152c10 -3 17 -5 22 -6l59 -18c245 -68 307 -131 307 -260c0 -237 -207 -402 -512 -402
c-119 0 -246 22 -403 70l36 190c135 -69 267 -106 387 -106c180 0 304 86 304 205c0 64 -74 116 -222 155l-82 21c-187 49 -270 127 -270 252c0 239 192 389 500 389c121 0 236 -20 348 -60z" />
    <glyph glyph-name="scedilla" unicode="&#x15f;" horiz-adv-x="1067" 
d="M668 993c-193 0 -312 -71 -312 -184c0 -66 65 -117 194 -152c10 -3 17 -5 22 -6l59 -18c245 -68 307 -131 307 -260c0 -213 -167 -368 -422 -397c37 -57 54 -107 54 -156c0 -133 -104 -215 -275 -215c-57 0 -115 8 -172 24l23 131c52 -21 104 -32 160 -32
c80 0 131 43 131 114c0 34 -11 71 -41 129c-110 4 -229 26 -373 70l36 190c135 -69 267 -106 387 -106c180 0 304 86 304 205c0 64 -74 116 -222 155l-82 21c-187 49 -270 127 -270 252c0 239 192 389 500 389c121 0 236 -20 348 -60l-35 -174c-97 53 -206 80 -321 80z" />
    <glyph glyph-name="germandbls" unicode="&#xdf;" horiz-adv-x="1290" 
d="M96 0l221 1137c51 263 237 419 500 419c232 0 391 -137 391 -333c0 -33 -4 -74 -12 -123c-216 -11 -362 -111 -362 -240c0 -53 26 -100 90 -149l49 -39c159 -125 201 -198 201 -305c0 -229 -205 -396 -496 -396c-101 0 -195 17 -279 49l31 164c87 -39 180 -59 275 -59
c165 0 278 84 278 205c0 60 -21 101 -125 190l-51 43c-129 109 -164 171 -164 260c0 168 154 316 385 365c3 11 4 22 4 47c0 104 -80 168 -213 168c-177 0 -284 -91 -319 -270l-219 -1133h-185z" />
    <glyph glyph-name="t" unicode="t" horiz-adv-x="803" 
d="M498 1120h368l-28 -143h-367l-119 -608c-8 -45 -12 -76 -12 -93c0 -85 49 -122 162 -122h186l-31 -154h-176c-219 0 -325 85 -325 258c0 31 4 67 12 111l119 608h-156l29 143h153l62 318h184z" />
    <glyph glyph-name="u" unicode="u" horiz-adv-x="1298" 
d="M137 444l131 676h185l-131 -669c-13 -65 -19 -111 -19 -142c0 -113 72 -178 199 -178c197 0 353 144 397 369l123 620h184l-217 -1120h-184l37 176c-104 -131 -253 -205 -414 -205c-196 0 -311 113 -311 305c0 40 7 104 20 168z" />
    <glyph glyph-name="uacute" unicode="&#xfa;" horiz-adv-x="1298" 
d="M622 1262l354 376h199l-399 -376h-154zM137 444l131 676h185l-131 -669c-13 -65 -19 -111 -19 -142c0 -113 72 -178 199 -178c197 0 353 144 397 369l123 620h184l-217 -1120h-184l37 176c-104 -131 -253 -205 -414 -205c-196 0 -311 113 -311 305c0 40 7 104 20 168z
" />
    <glyph glyph-name="ucircumflex" unicode="&#xfb;" horiz-adv-x="1298" 
d="M444 1262l319 376h148l172 -376h-139l-127 237l-234 -237h-139zM137 444l131 676h185l-131 -669c-13 -65 -19 -111 -19 -142c0 -113 72 -178 199 -178c197 0 353 144 397 369l123 620h184l-217 -1120h-184l37 176c-104 -131 -253 -205 -414 -205
c-196 0 -311 113 -311 305c0 40 7 104 20 168z" />
    <glyph glyph-name="udieresis" unicode="&#xfc;" horiz-adv-x="1298" 
d="M483 1350l39 202h205l-41 -202h-203zM874 1350l39 202h203l-39 -202h-203zM137 444l131 676h185l-131 -669c-13 -65 -19 -111 -19 -142c0 -113 72 -178 199 -178c197 0 353 144 397 369l123 620h184l-217 -1120h-184l37 176c-104 -131 -253 -205 -414 -205
c-196 0 -311 113 -311 305c0 40 7 104 20 168z" />
    <glyph glyph-name="ugrave" unicode="&#xf9;" horiz-adv-x="1298" 
d="M495 1638h197l209 -374h-154zM137 444l131 676h185l-131 -669c-13 -65 -19 -111 -19 -142c0 -113 72 -178 199 -178c197 0 353 144 397 369l123 620h184l-217 -1120h-184l37 176c-104 -131 -253 -205 -414 -205c-196 0 -311 113 -311 305c0 40 7 104 20 168z" />
    <glyph glyph-name="v" unicode="v" horiz-adv-x="1212" 
d="M352 0l-205 1120h195l164 -952l536 952h195l-637 -1120h-248z" />
    <glyph glyph-name="w" unicode="w" horiz-adv-x="1675" 
d="M250 0l-76 1120h182l47 -901l418 901h213l62 -901l397 901h184l-512 -1120h-215l-55 928l-428 -928h-217z" />
    <glyph glyph-name="x" unicode="x" horiz-adv-x="1212" 
d="M1006 1120h223l-514 -549l315 -571h-211l-237 444l-412 -444h-223l551 590l-293 530h211l215 -405z" />
    <glyph glyph-name="y" unicode="y" horiz-adv-x="1212" 
d="M1235 1120l-727 -1224c-171 -287 -247 -322 -414 -322h-145l31 154h106c103 0 163 43 252 206l57 107l-248 1079h195l186 -858l514 858h193z" />
    <glyph glyph-name="yacute" unicode="&#xfd;" horiz-adv-x="1212" 
d="M610 1262l354 376h199l-399 -376h-154zM1235 1120l-727 -1224c-171 -287 -247 -322 -414 -322h-145l31 154h106c103 0 163 43 252 206l57 107l-248 1079h195l186 -858l514 858h193z" />
    <glyph glyph-name="ydieresis" unicode="&#xff;" horiz-adv-x="1212" 
d="M471 1350l39 202h205l-41 -202h-203zM862 1350l39 202h203l-39 -202h-203zM1235 1120l-727 -1224c-171 -287 -247 -322 -414 -322h-145l31 154h106c103 0 163 43 252 206l57 107l-248 1079h195l186 -858l514 858h193z" />
    <glyph glyph-name="z" unicode="z" horiz-adv-x="1075" 
d="M209 973l29 147h874l-33 -168l-843 -805h696l-29 -147h-909l33 168l843 805h-661z" />
    <glyph glyph-name="zcaron" unicode="&#x17e;" horiz-adv-x="1075" 
d="M1076 1638l-320 -376h-147l-172 376h141l127 -237l231 237h140zM209 973l29 147h874l-33 -168l-843 -805h696l-29 -147h-909l33 168l843 805h-661z" />
    <glyph glyph-name="fi" unicode="&#xfb01;" horiz-adv-x="1323" 
d="M805 1556h174l-29 -153h-176c-133 0 -184 -44 -213 -184l-20 -99h303l-27 -143h-303l-190 -977h-185l191 977h-176l26 143h176l15 78c51 264 161 358 434 358zM1083 1323l45 233h185l-45 -233h-185zM825 0l217 1120h187l-219 -1120h-185z" />
    <glyph glyph-name="fl" unicode="&#xfb02;" horiz-adv-x="1323" 
d="M805 1556h508l-303 -1556h-185l279 1403h-330c-133 0 -184 -44 -213 -184l-20 -99h303l-27 -143h-303l-190 -977h-185l191 977h-176l26 143h176l15 78c51 265 159 358 434 358z" />
    <glyph glyph-name="ordfeminine" unicode="&#xaa;" horiz-adv-x="965" 
d="M903 1165l-88 -448h-149l22 112c-77 -87 -179 -131 -307 -131c-143 0 -238 89 -238 222c0 187 162 299 439 299h182v4c3 25 4 38 4 47c0 93 -60 135 -193 135c-93 0 -191 -23 -288 -68l24 127c105 37 208 56 299 56c200 0 303 -84 303 -244c0 -36 -3 -72 -10 -111z
M741 1104h-147c-209 0 -299 -47 -299 -158c0 -79 54 -129 141 -129c153 0 263 94 299 258zM82 469l22 123h689l-23 -123h-688z" />
    <glyph glyph-name="ordmasculine" unicode="&#xba;" horiz-adv-x="965" 
d="M621 1520c197 0 325 -124 325 -316c0 -293 -198 -506 -469 -506c-200 0 -325 129 -325 334c0 91 26 180 75 264c83 141 229 224 394 224zM788 1180c0 147 -67 225 -196 225c-155 0 -285 -164 -285 -365c0 -145 68 -227 191 -227c163 0 290 159 290 367zM82 469l22 123
h689l-23 -123h-688z" />
    <glyph glyph-name="uni03A9" unicode="&#x3a9;" horiz-adv-x="1565" 
d="M1167 178h320v-178h-600v178c236 129 375 362 375 631c0 320 -192 530 -480 530s-481 -211 -481 -530c0 -269 140 -502 377 -631v-178h-600v178h319c-211 185 -303 376 -303 621c0 424 281 712 688 712c404 0 688 -290 688 -702c0 -259 -88 -443 -303 -631z" />
    <glyph glyph-name="pi" unicode="&#x3c0;" horiz-adv-x="1206" 
d="M1194 1071l-35 -158h-182l-105 -487c-10 -49 -17 -89 -22 -120s-8 -53 -8 -68c0 -77 29 -107 102 -107c23 0 51 3 100 10l-30 -141c-40 -11 -76 -16 -111 -16c-157 0 -239 69 -239 202c0 31 4 70 11 118s21 126 44 233l80 376h-326l-194 -913h-181l195 913h-41
c-72 0 -111 -41 -123 -133h-160c37 221 116 291 336 291h889z" />
    <glyph glyph-name="zero" unicode="0" horiz-adv-x="1303" 
d="M782 1520c271 0 418 -186 418 -523c0 -256 -71 -521 -192 -721c-124 -200 -293 -305 -496 -305c-261 0 -410 188 -410 523c0 253 72 521 195 720c123 200 290 306 485 306zM770 1360c-101 0 -195 -55 -268 -160c-123 -176 -201 -458 -201 -735c0 -220 79 -334 231 -334
c107 0 198 55 271 160c121 175 198 456 198 735c0 220 -79 334 -231 334z" />
    <glyph glyph-name="one" unicode="1" horiz-adv-x="1303" 
d="M100 0l33 170h330l223 1149l-373 -72l35 174l371 72h203l-258 -1323h329l-32 -170h-861z" />
    <glyph glyph-name="two" unicode="2" horiz-adv-x="1303" 
d="M944 721l-645 -553h713l-35 -168h-969l33 170l674 578c180 156 248 263 248 387c0 129 -99 219 -246 219c-127 0 -283 -46 -459 -133l37 200c165 65 318 99 446 99c261 0 435 -152 435 -377c0 -152 -75 -287 -232 -422z" />
    <glyph glyph-name="three" unicode="3" horiz-adv-x="1303" 
d="M293 1276l31 180c147 43 284 64 417 64c264 0 430 -127 430 -324c0 -193 -129 -340 -344 -391c168 -48 244 -146 244 -313c0 -160 -79 -305 -223 -406c-109 -77 -260 -115 -459 -115c-125 0 -253 25 -385 74l37 191c125 -69 252 -103 385 -103c263 0 442 149 442 365
c0 139 -108 217 -301 217h-174l31 164h184c221 0 357 109 357 282c0 125 -98 197 -267 197c-128 0 -261 -27 -405 -82z" />
    <glyph glyph-name="four" unicode="4" horiz-adv-x="1303" 
d="M76 547l805 946h254l-191 -973h213l-33 -168h-213l-67 -352h-201l68 352h-674zM743 520l156 797l-666 -797h510z" />
    <glyph glyph-name="five" unicode="5" horiz-adv-x="1303" 
d="M387 1493h803l-31 -168h-618l-72 -369c61 20 125 29 190 29c276 0 447 -159 447 -412c0 -177 -85 -346 -236 -469c-107 -85 -265 -133 -448 -133c-120 0 -244 21 -381 64l37 188c123 -60 246 -90 371 -90c260 0 450 175 450 410c0 173 -117 274 -317 274
c-105 0 -220 -25 -340 -74z" />
    <glyph glyph-name="six" unicode="6" horiz-adv-x="1303" 
d="M1212 1458l-34 -184c-77 51 -180 78 -293 78c-276 0 -437 -168 -520 -537c97 113 229 172 378 172c244 0 400 -152 400 -389c0 -195 -73 -365 -209 -492c-93 -87 -221 -135 -361 -135c-275 0 -444 186 -444 490c0 283 76 557 207 749c137 203 337 310 573 310
c104 0 206 -21 303 -62zM940 553c0 169 -93 274 -242 274c-207 0 -366 -180 -366 -415c0 -176 91 -281 243 -281c208 0 365 186 365 422z" />
    <glyph glyph-name="seven" unicode="7" horiz-adv-x="1303" 
d="M229 1323l33 170h1022l-18 -86l-854 -1407h-222l807 1323h-768z" />
    <glyph glyph-name="eight" unicode="8" horiz-adv-x="1303" 
d="M877 786c151 -57 233 -176 233 -340c0 -276 -236 -475 -573 -475c-287 0 -469 152 -469 387c0 213 160 398 393 443c-140 48 -215 151 -215 295c0 241 224 424 532 424c257 0 436 -146 436 -349c0 -176 -129 -324 -337 -385zM1014 1149c0 127 -101 211 -256 211
c-183 0 -314 -115 -314 -270c0 -133 101 -222 254 -222c184 0 316 118 316 281zM911 453c0 151 -115 256 -286 256c-208 0 -359 -139 -359 -330c0 -152 111 -248 287 -248c209 0 358 135 358 322z" />
    <glyph glyph-name="nine" unicode="9" horiz-adv-x="1303" 
d="M90 33l37 184c77 -51 178 -78 291 -78c276 0 439 170 522 539c-99 -113 -232 -174 -381 -174c-243 0 -397 152 -397 389c0 195 72 366 209 491c93 88 219 136 358 136c276 0 447 -187 447 -490c0 -281 -78 -557 -209 -749c-139 -203 -337 -310 -574 -310
c-103 0 -206 21 -303 62zM362 940c0 -169 95 -276 244 -276c207 0 365 179 365 415c0 176 -92 281 -244 281c-207 0 -365 -184 -365 -420z" />
    <glyph glyph-name="uni00B9" unicode="&#xb9;" horiz-adv-x="821" 
d="M135 668l21 110h204l119 611l-229 -41l22 116l230 39h145l-141 -725h205l-23 -110h-553z" />
    <glyph glyph-name="uni00B2" unicode="&#xb2;" horiz-adv-x="821" 
d="M546 425l-385 -308h441l-23 -114h-618l22 110l422 340c78 63 117 119 117 172c0 72 -61 121 -154 121c-73 0 -159 -22 -270 -70l25 123c101 37 191 56 276 56c164 0 276 -84 276 -203c0 -83 -42 -158 -129 -227z" />
    <glyph glyph-name="uni00B3" unicode="&#xb3;" horiz-adv-x="821" 
d="M193 1370l22 115c111 24 191 35 264 35c167 0 275 -76 275 -191c0 -103 -82 -185 -211 -209c100 -21 155 -86 155 -182c0 -169 -162 -285 -407 -285c-85 0 -173 14 -258 41l24 121c71 -36 144 -53 228 -53c164 0 262 65 262 174c0 83 -64 125 -195 125h-86l23 108h92
c136 0 217 51 217 136c0 71 -55 106 -164 106c-75 0 -160 -14 -241 -41z" />
    <glyph glyph-name="fraction" unicode="&#x2044;" horiz-adv-x="342" 
d="M-537 -29l1235 1549h179l-1233 -1549h-181z" />
    <glyph glyph-name="onehalf" unicode="&#xbd;" horiz-adv-x="1984" 
d="M284 -29l1235 1549h179l-1233 -1549h-181zM135 668l21 110h204l119 611l-229 -41l22 116l230 39h145l-141 -725h205l-23 -110h-553zM1709 425l-385 -308h441l-23 -114h-618l22 110l422 340c78 63 117 119 117 172c0 72 -61 121 -154 121c-73 0 -159 -22 -270 -70l25 123
c101 37 191 56 276 56c164 0 276 -84 276 -203c0 -83 -42 -158 -129 -227z" />
    <glyph glyph-name="onequarter" unicode="&#xbc;" horiz-adv-x="1985" 
d="M284 -29l1235 1549h179l-1233 -1549h-181zM135 668l21 110h204l119 611l-229 -41l22 116l230 39h145l-141 -725h205l-23 -110h-553zM1272 317l493 518h166l-106 -540h137l-21 -109h-137l-37 -186h-141l37 186h-416zM1683 295l82 415l-393 -415h311z" />
    <glyph glyph-name="threequarters" unicode="&#xbe;" horiz-adv-x="1985" 
d="M193 1370l22 115c111 24 191 35 264 35c167 0 275 -76 275 -191c0 -103 -82 -185 -211 -209c100 -21 155 -86 155 -182c0 -169 -162 -285 -407 -285c-85 0 -173 14 -258 41l24 121c71 -36 144 -53 228 -53c164 0 262 65 262 174c0 83 -64 125 -195 125h-86l23 108h92
c136 0 217 51 217 136c0 71 -55 106 -164 106c-75 0 -160 -14 -241 -41zM284 -29l1235 1549h179l-1233 -1549h-181zM1272 317l493 518h166l-106 -540h137l-21 -109h-137l-37 -186h-141l37 186h-416zM1683 295l82 415l-393 -415h311z" />
    <glyph glyph-name="asterisk" unicode="*" 
d="M905 1346l58 -99l-359 -194l359 -195l-58 -98l-336 203v-377h-114v377l-336 -203l-58 98l359 195l-359 194l58 99l336 -203v377h114v-377z" />
    <glyph glyph-name="backslash" unicode="\" horiz-adv-x="690" 
d="M174 1493h170l193 -1683h-168z" />
    <glyph glyph-name="periodcentered" unicode="&#xb7;" horiz-adv-x="651" 
d="M233 584l50 254h211l-50 -254h-211z" />
    <glyph glyph-name="bullet" unicode="&#x2022;" horiz-adv-x="1208" 
d="M307 762c0 164 133 295 297 295c163 0 295 -132 295 -295s-134 -297 -297 -297c-164 0 -295 133 -295 297z" />
    <glyph glyph-name="colon" unicode=":" horiz-adv-x="690" 
d="M275 813l49 220h211l-49 -220h-211zM188 413l49 220h211l-49 -220h-211zM99 0l50 220h211l-50 -220h-211z" />
    <glyph glyph-name="comma" unicode="," horiz-adv-x="651" 
d="M150 82l34 172h211l-33 -172l-227 -320h-129z" />
    <glyph glyph-name="ellipsis" unicode="&#x2026;" horiz-adv-x="2048" 
d="M133 0l49 254h211l-49 -254h-211zM815 0l49 254h211l-49 -254h-211zM1499 0l49 254h211l-49 -254h-211z" />
    <glyph glyph-name="exclam" unicode="!" horiz-adv-x="821" 
d="M326 838l127 655h202l-127 -655l-90 -357h-162zM162 0l51 254h203l-49 -254h-205z" />
    <glyph glyph-name="exclamdown" unicode="&#xa1;" horiz-adv-x="821" 
d="M668 1493l-52 -254h-202l49 254h205zM504 655l-127 -655h-203l127 655l90 357h162z" />
    <glyph glyph-name="numbersign" unicode="#" horiz-adv-x="1716" 
d="M735 1470h162l-104 -415h292l105 415h160l-103 -415h336l-39 -154h-336l-82 -334h340l-36 -153h-343l-104 -414h-160l103 414h-293l-103 -414h-161l104 414h-330l37 153h330l84 334h-336l39 154h336zM965 567l82 334h-291l-84 -334h293z" />
    <glyph glyph-name="period" unicode="." horiz-adv-x="651" 
d="M119 0l49 254h211l-49 -254h-211z" />
    <glyph glyph-name="question" unicode="?" horiz-adv-x="1087" 
d="M252 1219l37 188c136 76 270 113 411 113c215 0 347 -107 347 -279c0 -137 -67 -250 -228 -381l-104 -84c-112 -88 -134 -129 -158 -252l-25 -123h-190l31 154c24 125 59 194 207 317l106 89c112 93 152 157 152 233c0 101 -77 162 -205 162c-107 0 -242 -49 -381 -137z
M307 254h203l-49 -254h-203z" />
    <glyph glyph-name="questiondown" unicode="&#xbf;" horiz-adv-x="1087" 
d="M815 1239h-203l50 254h202zM870 274l-36 -188c-137 -76 -269 -113 -412 -113c-215 0 -346 107 -346 279c0 137 67 250 227 381l103 84c113 91 136 132 159 252l25 123h190l-30 -154c-25 -125 -60 -194 -207 -317l-107 -89c-112 -93 -151 -157 -151 -233
c0 -101 77 -162 204 -162c108 0 242 49 381 137z" />
    <glyph glyph-name="quotedbl" unicode="&#x22;" horiz-adv-x="942" 
d="M197 1493h170v-555h-170v555zM575 1493h170v-555h-170v555z" />
    <glyph glyph-name="quotesingle" unicode="'" horiz-adv-x="563" 
d="M197 1493h170v-555h-170v555z" />
    <glyph glyph-name="semicolon" unicode=";" horiz-adv-x="690" 
d="M287 805l49 254h211l-49 -254h-211zM145 82l35 172h211l-35 -172l-225 -320h-129z" />
    <glyph glyph-name="slash" unicode="/" horiz-adv-x="690" 
d="M-150 -190l846 1683h178l-847 -1683h-177z" />
    <glyph glyph-name="underscore" unicode="_" 
d="M-20 -340h1064v-143h-1064v143z" />
    <glyph glyph-name="periodcentered.257" horiz-adv-x="651" 
d="M233 584l50 254h211l-50 -254h-211z" />
    <glyph glyph-name="colon.001" horiz-adv-x="690" 
d="M264 805l49 254h211l-49 -254h-211zM186 401l49 254h211l-49 -254h-211zM106 0l50 254h211l-50 -254h-211z" />
    <glyph glyph-name="braceleft" unicode="{" horiz-adv-x="1303" 
d="M1157 1556h82l-29 -143h-77c-181 0 -220 -29 -261 -229l-51 -252c-43 -213 -116 -298 -264 -326c97 -24 154 -96 154 -196c0 -32 -6 -77 -15 -128l-47 -244c-7 -41 -10 -76 -10 -108c0 -84 53 -120 182 -120h78l-29 -144h-71c-251 0 -350 68 -350 232c0 43 5 88 14 137
l45 235c0 2 1 6 2 12c7 33 10 65 10 95c0 113 -60 160 -211 160h-61l28 147h62c192 0 260 59 303 260l47 244c35 164 79 253 152 305c61 45 140 63 317 63z" />
    <glyph glyph-name="braceright" unicode="}" horiz-adv-x="1303" 
d="M96 -334h-82l29 144h78c181 0 220 29 260 229l51 252c44 213 116 298 264 325c-97 25 -153 96 -153 197c0 33 5 76 14 127l47 243c8 45 10 76 10 109c0 85 -53 121 -182 121h-78l27 143h74c249 0 350 -67 350 -231c0 -41 -4 -86 -15 -138l-45 -235c0 -2 -1 -6 -2 -12
c-7 -33 -10 -64 -10 -94c0 -115 60 -160 211 -160h62l-29 -147h-62c-192 0 -260 -60 -299 -260l-53 -244c-35 -168 -78 -254 -149 -305c-63 -45 -141 -64 -318 -64z" />
    <glyph glyph-name="bracketleft" unicode="[" horiz-adv-x="799" 
d="M82 -270l354 1826h424l-29 -143h-239l-299 -1540h239l-26 -143h-424z" />
    <glyph glyph-name="bracketright" unicode="]" horiz-adv-x="799" 
d="M276 1556h424l-354 -1826h-424l27 143h239l299 1540h-237z" />
    <glyph glyph-name="parenleft" unicode="(" horiz-adv-x="799" 
d="M711 1554h163c-353 -441 -526 -834 -526 -1202c0 -211 51 -418 152 -622h-160c-123 229 -182 445 -182 653c0 396 182 783 553 1171z" />
    <glyph glyph-name="parenright" unicode=")" horiz-adv-x="799" 
d="M37 -270h-164c355 441 526 834 526 1202c0 211 -50 418 -151 622h160c123 -231 182 -443 182 -651c0 -397 -185 -789 -553 -1173z" />
    <glyph glyph-name="emdash" unicode="&#x2014;" horiz-adv-x="2048" 
d="M-14 489l28 144h2048l-28 -144h-2048z" />
    <glyph glyph-name="endash" unicode="&#x2013;" 
d="M-14 489l28 144h1024l-28 -144h-1024z" />
    <glyph glyph-name="hyphen" unicode="-" horiz-adv-x="739" 
d="M92 479l33 164h539l-31 -164h-541z" />
    <glyph glyph-name="uni00AD" unicode="&#xad;" horiz-adv-x="739" 
d="M92 479l33 164h539l-31 -164h-541z" />
    <glyph glyph-name="guillemotleft" unicode="&#xab;" horiz-adv-x="1264" 
d="M143 641l549 418l-39 -201l-354 -270l252 -266l-37 -181l-387 418zM588 641l549 418l-39 -201l-355 -270l252 -266l-37 -181l-387 418z" />
    <glyph glyph-name="guillemotright" unicode="&#xbb;" horiz-adv-x="1264" 
d="M676 559l-549 -418l39 201l352 270l-250 267l37 180l385 -418zM1120 559l-551 -418l39 201l355 270l-252 267l39 180l385 -418z" />
    <glyph glyph-name="guilsinglleft" unicode="&#x2039;" horiz-adv-x="819" 
d="M143 641l549 418l-37 -201l-356 -270l252 -266l-37 -181l-387 418z" />
    <glyph glyph-name="guilsinglright" unicode="&#x203a;" horiz-adv-x="819" 
d="M678 559l-551 -418l39 201l356 270l-252 267l35 180l387 -418z" />
    <glyph glyph-name="quotedblbase" unicode="&#x201e;" horiz-adv-x="1061" 
d="M150 82l34 172h211l-35 -172l-225 -320h-129zM559 82l35 172h211l-35 -172l-225 -320h-129z" />
    <glyph glyph-name="quotedblleft" unicode="&#x201c;" horiz-adv-x="1061" 
d="M514 1174l-35 -173h-211l35 173l225 319h129zM924 1174l-35 -173h-211l35 173l225 319h129z" />
    <glyph glyph-name="quotedblright" unicode="&#x201d;" horiz-adv-x="1061" 
d="M420 1321l35 172h211l-35 -172l-225 -320h-130zM829 1321l35 172h211l-35 -172l-225 -320h-129z" />
    <glyph glyph-name="quoteleft" unicode="&#x2018;" horiz-adv-x="651" 
d="M514 1174l-35 -173h-211l35 173l225 319h129z" />
    <glyph glyph-name="quoteright" unicode="&#x2019;" horiz-adv-x="651" 
d="M420 1321l35 172h211l-33 -172l-227 -320h-130z" />
    <glyph glyph-name="quotesinglbase" unicode="&#x201a;" horiz-adv-x="651" 
d="M150 82l34 172h211l-35 -172l-225 -320h-129z" />
    <glyph glyph-name="space" unicode=" " horiz-adv-x="651" 
 />
    <glyph glyph-name="uni00A0" unicode="&#xa0;" horiz-adv-x="1303" 
 />
    <glyph glyph-name="CR" unicode="&#xd;" horiz-adv-x="651" 
 />
    <glyph glyph-name="cent" unicode="&#xa2;" horiz-adv-x="1303" 
d="M944 1430l-55 -285c97 -9 181 -31 264 -68l-35 -182c-63 49 -141 78 -260 94l-168 -862c88 7 186 36 297 92l-35 -182c-87 -37 -185 -59 -288 -66l-60 -284h-100l59 284c-263 17 -411 171 -411 430c0 408 260 713 636 744l56 285h100zM590 125l168 860
c-237 -31 -418 -272 -418 -559c0 -179 79 -274 250 -301z" />
    <glyph glyph-name="currency" unicode="&#xa4;" horiz-adv-x="1303" 
d="M891 993l207 209l114 -115l-206 -206c49 -79 73 -157 73 -240c0 -84 -25 -159 -78 -235l209 -207l-114 -113l-207 207c-79 -53 -155 -78 -236 -78c-77 0 -158 25 -239 74l-207 -207l-113 115l207 206c-49 83 -74 161 -74 238c0 85 25 161 76 236l-207 206l115 115
l207 -207c73 52 150 76 235 76c80 0 157 -23 238 -74zM922 643c0 149 -117 266 -269 266c-149 0 -270 -117 -270 -266c0 -152 119 -270 270 -270s269 119 269 270z" />
    <glyph glyph-name="dollar" unicode="$" horiz-adv-x="1303" 
d="M1167 1262l-34 -181c-115 61 -227 95 -332 98l-84 -427c245 -39 377 -156 377 -336c0 -233 -207 -400 -523 -416l-59 -301h-100l59 301c-155 4 -292 36 -403 92l34 184c123 -83 257 -129 398 -134l88 456c-252 48 -361 143 -361 311c0 221 200 390 500 414l47 233h100
l-44 -233c120 -4 236 -25 337 -61zM621 770l79 410c-176 -19 -282 -109 -282 -242c0 -93 59 -143 203 -168zM684 578l-84 -433c185 8 301 101 301 238c0 112 -64 170 -217 195z" />
    <glyph glyph-name="Euro" unicode="&#x20ac;" horiz-adv-x="1303" 
d="M1243 1378l-33 -213c-111 135 -218 195 -346 195c-191 0 -335 -131 -430 -387h520l-53 -123h-504c-16 -67 -27 -134 -32 -207h444l-55 -123h-393c12 -260 118 -389 319 -389c145 0 267 54 403 182l-39 -239c-125 -68 -260 -103 -389 -103c-297 0 -483 206 -496 549h-198
l55 123h145c7 73 17 142 32 207h-173l56 123h151c129 368 341 547 645 547c137 0 260 -47 371 -142z" />
    <glyph glyph-name="florin" unicode="&#x192;" horiz-adv-x="1303" 
d="M1266 1509l-31 -153c-51 39 -103 57 -162 57c-128 0 -202 -78 -235 -254l-60 -311h318l-31 -143h-317l-127 -635c-76 -372 -185 -496 -416 -496c-99 0 -179 16 -252 51l31 158c69 -44 133 -66 196 -66c129 0 195 82 240 303l137 685h-278l30 143h279l63 330
c49 255 183 378 408 378c61 0 124 -14 207 -47z" />
    <glyph glyph-name="sterling" unicode="&#xa3;" horiz-adv-x="1303" 
d="M1305 1460l-35 -182c-81 53 -171 82 -256 82c-196 0 -281 -90 -336 -367l-41 -215h391l-29 -143h-391l-90 -465h537l-33 -170h-973l33 170h235l91 465h-199l29 143h198l45 238c69 349 236 504 545 504c93 0 187 -20 279 -60z" />
    <glyph glyph-name="yen" unicode="&#xa5;" horiz-adv-x="1303" 
d="M1145 578l-23 -123h-411l-88 -455h-203l88 455h-416l23 123h417l11 51l-54 155h-333l24 123h266l-204 586h190l240 -700l512 700h194l-430 -586h262l-24 -123h-328l-113 -155l-10 -51h410z" />
    <glyph glyph-name="plus" unicode="+" horiz-adv-x="1716" 
d="M774 1284h168v-557h557v-170h-557v-557h-168v557h-557v170h557v557z" />
    <glyph glyph-name="minus" unicode="&#x2212;" horiz-adv-x="1716" 
d="M217 557v170h1282v-170h-1282z" />
    <glyph glyph-name="multiply" unicode="&#xd7;" horiz-adv-x="1716" 
d="M1317 1221l119 -121l-457 -459l457 -457l-119 -121l-459 459l-459 -459l-118 121l456 457l-456 459l118 121l459 -459z" />
    <glyph glyph-name="divide" unicode="&#xf7;" horiz-adv-x="1716" 
d="M735 889v246h246v-246h-246zM217 557v170h1282v-170h-1282zM735 150v245h246v-245h-246z" />
    <glyph glyph-name="equal" unicode="=" horiz-adv-x="1716" 
d="M217 762v168h1282v-168h-1282zM217 352v170h1282v-170h-1282z" />
    <glyph glyph-name="notequal" unicode="&#x2260;" horiz-adv-x="1716" 
d="M217 762v168h772l256 315l125 -102l-174 -213h303v-168h-440l-195 -240h635v-170h-774l-258 -313l-125 102l174 211h-299v170h438l195 240h-633z" />
    <glyph glyph-name="greater" unicode="&#x3e;" horiz-adv-x="1716" 
d="M1247 641l-1030 367v182l1282 -465v-166l-1282 -465v182z" />
    <glyph glyph-name="less" unicode="&#x3c;" horiz-adv-x="1716" 
d="M1499 1190v-182l-1032 -367l1032 -365v-182l-1282 465v166z" />
    <glyph glyph-name="greaterequal" unicode="&#x2265;" horiz-adv-x="1716" 
d="M1178 739l-961 277v176l1282 -367v-170l-1282 -368v178zM217 170h1282v-170h-1282v170z" />
    <glyph glyph-name="lessequal" unicode="&#x2264;" horiz-adv-x="1716" 
d="M1499 1192v-176l-960 -277l960 -274v-178l-1282 368v170zM217 0v170h1282v-170h-1282z" />
    <glyph glyph-name="plusminus" unicode="&#xb1;" horiz-adv-x="1716" 
d="M774 1284h168v-387h557v-170h-557v-387h-168v387h-557v170h557v387zM217 0v170h1282v-170h-1282z" />
    <glyph glyph-name="approxequal" unicode="&#x2248;" horiz-adv-x="1716" 
d="M1499 1012v-178c-140 -105 -252 -148 -381 -148c-73 0 -159 20 -256 59l-17 7c-4 1 -11 4 -21 8c-103 41 -186 61 -249 61c-117 0 -227 -48 -358 -159v178c140 104 252 147 381 147c73 0 159 -20 257 -59l15 -6c5 -2 12 -5 22 -9c103 -41 186 -61 249 -61
c115 0 221 47 358 160zM1499 623v-179c-140 -104 -252 -147 -381 -147c-73 0 -159 20 -256 59l-17 7c-4 1 -11 4 -21 8c-103 41 -186 61 -249 61c-117 0 -227 -48 -358 -160v179c140 104 252 147 381 147c73 0 159 -20 257 -59l16 -7c4 -1 11 -4 21 -8
c103 -41 186 -61 249 -61c115 0 221 47 358 160z" />
    <glyph glyph-name="asciitilde" unicode="~" horiz-adv-x="1716" 
d="M1499 817v-178c-140 -105 -252 -147 -381 -147c-73 0 -159 20 -256 59c-7 3 -13 5 -16 6c-5 2 -12 5 -22 8c-103 41 -186 62 -249 62c-117 0 -227 -49 -358 -160v178c140 105 252 148 381 148c73 0 159 -20 257 -60l37 -14c103 -41 186 -62 249 -62c115 0 221 48 358 160
z" />
    <glyph glyph-name="logicalnot" unicode="&#xac;" horiz-adv-x="1716" 
d="M217 692v170h1282v-575h-168v405h-1114z" />
    <glyph glyph-name="infinity" unicode="&#x221e;" horiz-adv-x="1706" 
d="M864 483c-93 -180 -196 -262 -321 -262c-181 0 -322 168 -322 389c0 233 122 391 301 391c127 0 224 -80 320 -264c91 184 194 269 323 269c179 0 322 -169 322 -392c0 -233 -122 -389 -301 -389c-125 0 -217 73 -322 258zM915 559c65 -117 155 -178 267 -178
c135 0 229 100 229 240c0 135 -88 235 -207 235c-109 0 -190 -81 -289 -297zM793 666c-65 117 -154 176 -267 176c-136 0 -229 -97 -229 -238c0 -135 88 -235 207 -235c109 0 192 82 289 297z" />
    <glyph glyph-name="integral" unicode="&#x222b;" horiz-adv-x="1067" 
d="M311 -262c71 0 111 229 120 688c1 72 2 127 3 165c8 343 44 589 107 737s162 222 297 222c107 0 180 -62 180 -149c0 -72 -46 -117 -119 -117c-56 0 -94 26 -110 73c-4 10 -7 27 -10 51s-10 36 -21 36c-71 0 -112 -206 -121 -619c-3 -129 -5 -230 -8 -303
c-11 -319 -48 -548 -111 -686s-160 -207 -291 -207c-105 0 -180 61 -180 148c0 75 48 119 129 119c44 0 76 -20 96 -57c7 -12 12 -32 15 -59c3 -28 11 -42 24 -42z" />
    <glyph glyph-name="uni2206" unicode="&#x2206;" horiz-adv-x="1370" 
d="M-6 0l579 1473h224l579 -1473h-1382zM1102 178l-418 1084l-418 -1084h836z" />
    <glyph glyph-name="product" unicode="&#x220f;" horiz-adv-x="1550" 
d="M156 -393v1866h1237v-1866h-240v1661h-758v-1661h-239z" />
    <glyph glyph-name="summation" unicode="&#x2211;" horiz-adv-x="1380" 
d="M55 1296v177h1258v-193h-959l672 -717l-694 -764h1007v-192h-1314v149l725 801z" />
    <glyph glyph-name="radical" unicode="&#x221a;" horiz-adv-x="1305" 
d="M600 266l516 1395h189v-96h-115l-594 -1606h-66l-319 883l-125 -45l-25 80l283 98z" />
    <glyph glyph-name="uni00B5" unicode="&#xb5;" horiz-adv-x="1303" 
d="M158 -426h-185l301 1546h185l-136 -697c-5 -28 -10 -64 -10 -99c0 -124 81 -193 226 -193c197 0 319 112 362 336l127 653h184l-167 -861c-5 -25 -7 -43 -7 -58c0 -41 16 -60 52 -60c7 0 16 2 28 5c11 3 28 9 49 18l-28 -148c-59 -29 -111 -45 -162 -45
c-88 0 -141 59 -141 158c-75 -107 -176 -158 -316 -158c-124 0 -225 63 -254 156z" />
    <glyph glyph-name="partialdiff" unicode="&#x2202;" horiz-adv-x="1059" 
d="M756 621c20 116 30 225 30 325c0 172 -49 260 -145 260c-37 0 -79 -19 -127 -58s-84 -58 -108 -58c-48 0 -84 34 -84 75c0 83 110 160 245 160c240 0 394 -222 394 -573c0 -447 -218 -777 -502 -777c-203 0 -355 162 -355 379c0 264 167 455 383 455
c135 0 218 -59 269 -188zM707 494c0 155 -61 241 -166 241c-145 0 -250 -189 -250 -465c0 -155 59 -239 166 -239c145 0 250 192 250 463z" />
    <glyph glyph-name="percent" unicode="%" horiz-adv-x="1946" 
d="M481 707c-181 0 -295 126 -295 329c0 288 170 484 418 484c181 0 295 -128 295 -332c0 -285 -170 -481 -418 -481zM1524 1520h159l-1234 -1549h-160zM739 1182c0 140 -52 211 -155 211c-149 0 -238 -136 -238 -367c0 -123 56 -192 156 -192c143 0 237 137 237 348z
M1343 -29c-181 0 -294 127 -294 330c0 288 169 483 417 483c181 0 293 -125 293 -329c0 -287 -169 -484 -416 -484zM1599 446c0 143 -50 213 -153 213c-148 0 -238 -137 -238 -368c0 -124 56 -193 156 -193c143 0 235 137 235 348z" />
    <glyph glyph-name="perthousand" unicode="&#x2030;" horiz-adv-x="2765" 
d="M481 707c-181 0 -295 126 -295 329c0 288 170 484 418 484c181 0 295 -128 295 -332c0 -285 -170 -481 -418 -481zM1524 1520h159l-1234 -1549h-160zM739 1182c0 140 -52 211 -155 211c-149 0 -238 -136 -238 -367c0 -123 56 -192 156 -192c143 0 237 137 237 348z
M1343 -29c-181 0 -294 127 -294 330c0 288 169 483 417 483c181 0 293 -125 293 -329c0 -287 -169 -484 -416 -484zM2163 -29c-183 0 -295 127 -295 330c0 288 169 483 418 483c180 0 292 -125 292 -329c0 -287 -170 -484 -415 -484zM1599 446c0 143 -50 213 -153 213
c-148 0 -238 -137 -238 -368c0 -124 56 -193 156 -193c143 0 235 137 235 348zM2419 446c0 143 -51 213 -154 213c-148 0 -237 -137 -237 -368c0 -124 55 -193 155 -193c143 0 236 137 236 348z" />
    <glyph glyph-name="lozenge" unicode="&#x25ca;" horiz-adv-x="1012" 
d="M6 592l500 1061l500 -1061l-500 -1069zM891 592l-385 817l-385 -817l385 -825z" />
    <glyph glyph-name="at" unicode="@" horiz-adv-x="2048" 
d="M1223 84l30 154c-92 -99 -201 -150 -317 -150c-196 0 -340 147 -340 350c0 293 231 549 496 549c123 0 224 -56 276 -151l27 131h143l-143 -738c236 37 405 262 405 541c0 311 -243 528 -592 528c-237 0 -468 -87 -637 -239c-193 -179 -307 -425 -307 -670
c0 -348 259 -602 619 -602c172 0 333 56 516 180l82 -114c-180 -136 -393 -207 -613 -207c-429 0 -749 319 -749 755c0 300 146 595 397 799c185 152 436 240 688 240c428 0 742 -283 742 -662c0 -393 -302 -686 -723 -694zM1094 846c-188 0 -338 -171 -338 -379
c0 -149 80 -238 215 -238c189 0 334 173 334 394c0 136 -83 223 -211 223z" />
    <glyph glyph-name="ampersand" unicode="&#x26;" horiz-adv-x="1597" 
d="M1321 801h186c-60 -212 -158 -387 -295 -531l209 -270h-252l-106 139c-141 -111 -306 -168 -483 -168c-295 0 -484 158 -484 398c0 205 124 389 367 544c-41 61 -60 123 -60 195c0 91 32 173 89 240c92 109 237 172 397 172c104 0 209 -24 317 -72l-35 -182
c-100 63 -201 96 -294 96c-165 0 -279 -96 -279 -229c0 -29 6 -58 19 -87s42 -72 88 -131l407 -520c100 105 172 243 209 406zM967 260l-426 543c-161 -117 -246 -252 -246 -389c0 -169 124 -281 313 -281c125 0 250 44 359 127z" />
    <glyph glyph-name="paragraph" unicode="&#xb6;" horiz-adv-x="1303" 
d="M768 1493h406l-328 -1690h-139l305 1567h-191l-305 -1567h-141l164 846c-237 8 -379 141 -379 352c0 281 256 492 608 492z" />
    <glyph glyph-name="section" unicode="&#xa7;" 
d="M993 1462l-32 -164c-96 52 -190 78 -267 78c-137 0 -235 -73 -235 -170c0 -53 45 -109 135 -169l47 -31l88 -60c163 -113 207 -179 207 -272c0 -135 -94 -263 -246 -334c55 -47 82 -107 82 -180c0 -209 -177 -355 -442 -355c-92 0 -196 19 -305 58l32 164
c101 -51 200 -78 279 -78c149 0 246 69 246 174c0 65 -60 138 -180 219l-91 61c-164 112 -205 172 -205 271c0 128 89 248 246 332c-57 51 -82 102 -82 170c0 196 181 344 430 344c95 0 190 -19 293 -58zM485 487l117 -77c109 65 168 141 168 217c0 36 -18 73 -53 111
c-36 37 -102 86 -197 147l-80 51c-108 -68 -166 -144 -166 -219c0 -33 14 -66 43 -98c28 -33 84 -77 168 -132z" />
    <glyph glyph-name="copyright" unicode="&#xa9;" horiz-adv-x="2048" 
d="M1024 1485c203 0 379 -74 524 -219s217 -320 217 -525c0 -203 -72 -377 -217 -522s-321 -219 -524 -219s-379 74 -524 219s-217 319 -217 522c0 205 72 380 217 525s321 219 524 219zM1024 1382c-175 0 -326 -63 -451 -188s-190 -280 -190 -453c0 -172 65 -325 190 -450
s276 -189 451 -189c176 0 328 64 453 189c124 124 186 275 186 450c0 177 -63 329 -186 453c-125 125 -277 188 -453 188zM1323 1137v-129c-88 44 -174 65 -262 65c-199 0 -316 -123 -316 -332c0 -212 119 -333 326 -333c85 0 164 20 252 65v-127c-89 -39 -181 -57 -274 -57
c-288 0 -467 175 -467 452c0 279 179 451 467 451c97 0 187 -19 274 -55z" />
    <glyph glyph-name="registered" unicode="&#xae;" horiz-adv-x="2048" 
d="M1024 1485c203 0 379 -74 524 -219s217 -320 217 -525c0 -203 -72 -377 -217 -522s-321 -219 -524 -219s-379 74 -524 219s-217 319 -217 522c0 205 72 380 217 525s321 219 524 219zM1024 1382c-175 0 -326 -63 -451 -188s-190 -280 -190 -453c0 -172 65 -325 190 -450
s276 -189 451 -189c176 0 328 64 453 189c124 124 186 275 186 450c0 177 -63 329 -186 453c-125 125 -277 188 -453 188zM719 1174h285c235 0 350 -79 350 -240c0 -115 -73 -192 -201 -215c16 -5 35 -21 58 -46c22 -26 48 -63 79 -112l137 -223h-172l-129 209
c-79 128 -114 147 -186 147h-66v-356h-155v836zM997 1071h-123v-276h123c147 0 197 37 197 137c0 101 -52 139 -197 139z" />
    <glyph glyph-name="trademark" unicode="&#x2122;" horiz-adv-x="2048" 
d="M295 1493h518v-94h-203v-484h-114v484h-201v94zM926 1493h172l174 -256l164 256h170v-578h-113v484l-195 -303h-55l-203 303v-484h-114v578z" />
    <glyph glyph-name="degree" unicode="&#xb0;" 
d="M512 1520c85 0 168 -34 225 -95c61 -60 92 -137 92 -225c0 -176 -140 -315 -319 -315c-180 0 -315 135 -315 315c0 179 140 320 317 320zM512 1391c-107 0 -190 -84 -190 -191c0 -105 83 -188 190 -188s190 83 190 188s-85 191 -190 191z" />
    <glyph glyph-name="bar" unicode="|" horiz-adv-x="690" 
d="M260 1565h170v-2048h-170v2048z" />
    <glyph glyph-name="brokenbar" unicode="&#xa6;" horiz-adv-x="690" 
d="M260 1432h170v-758h-170v758zM260 408h170v-758h-170v758z" />
    <glyph glyph-name="dagger" unicode="&#x2020;" 
d="M483 1073l82 420h174l-80 -420h367l-31 -153h-366l-217 -1117h-176l217 1117h-367l29 153h368z" />
    <glyph glyph-name="daggerdbl" unicode="&#x2021;" 
d="M903 377l-29 -154h-366l-82 -420h-176l82 420h-367l29 154h366l107 543h-367l29 153h367l82 420h176l-82 -420h368l-30 -153h-367l-106 -543h366z" />
    <glyph glyph-name="asciicircum" unicode="^" horiz-adv-x="1716" 
d="M760 1493h196l543 -557h-201l-440 395l-440 -395h-201z" />
    <glyph glyph-name="acute" unicode="&#xb4;" 
d="M516 1262l354 376h199l-399 -376h-154z" />
    <glyph glyph-name="breve" unicode="&#x2d8;" 
d="M412 1608h114v-15c0 -91 55 -135 170 -135c113 0 185 47 226 150h116c-43 -185 -173 -287 -368 -287c-171 0 -260 87 -260 254c0 4 0 10 1 17s1 13 1 16z" />
    <glyph glyph-name="caron" unicode="&#x2c7;" 
d="M1049 1638l-320 -376h-147l-172 376h141l127 -237l231 237h140z" />
    <glyph glyph-name="cedilla" unicode="&#xb8;" 
d="M358 0h119c48 -68 70 -124 70 -180c0 -133 -104 -215 -275 -215c-57 0 -115 8 -172 24l23 131c52 -21 104 -32 160 -32c80 0 131 43 131 114c0 39 -15 82 -56 158z" />
    <glyph glyph-name="circumflex" unicode="&#x2c6;" 
d="M338 1262l319 376h148l172 -376h-139l-127 237l-234 -237h-139z" />
    <glyph glyph-name="dieresis" unicode="&#xa8;" 
d="M377 1350l39 202h205l-41 -202h-203zM768 1350l39 202h203l-39 -202h-203z" />
    <glyph glyph-name="dotaccent" unicode="&#x2d9;" 
d="M571 1348l41 204h203l-39 -204h-205z" />
    <glyph glyph-name="grave" unicode="`" 
d="M389 1638h197l209 -374h-154z" />
    <glyph glyph-name="hungarumlaut" unicode="&#x2dd;" 
d="M385 1262l264 376h170l-297 -376h-137zM705 1262l278 376h178l-321 -376h-135z" />
    <glyph glyph-name="macron" unicode="&#xaf;" 
d="M381 1378l29 148h598l-29 -148h-598z" />
    <glyph glyph-name="ogonek" unicode="&#x2db;" 
d="M354 0h119c-85 -89 -127 -156 -127 -203s30 -69 90 -69c39 0 86 10 135 30l-24 -132c-49 -16 -98 -23 -139 -23c-137 0 -207 51 -207 151c0 69 52 151 153 246z" />
    <glyph glyph-name="ring" unicode="&#x2da;" 
d="M977 1524c0 -153 -120 -275 -275 -275c-153 0 -274 122 -274 275c0 155 121 274 274 274c155 0 275 -119 275 -274zM854 1524c0 85 -65 151 -152 151c-88 0 -151 -63 -151 -151s63 -152 151 -152c89 0 152 64 152 152z" />
    <glyph glyph-name="tilde" unicode="&#x2dc;" 
d="M674 1370l-45 55c-17 21 -40 35 -61 39c-52 0 -84 -46 -107 -155h-125c40 183 129 282 250 282c49 0 92 -21 127 -61l47 -55c16 -21 34 -32 59 -39c25 0 46 12 63 36c16 23 31 63 44 119h125c-39 -183 -127 -282 -250 -282c-51 0 -96 21 -127 61z" />
    <glyph glyph-name="uni0000" horiz-adv-x="0" 
 />
    <glyph glyph-name="uni0000" horiz-adv-x="0" 
 />
    <glyph glyph-name="c6459" 
d="M408 1294l39 203h204l-41 -203h-202zM703 1293l39 203h202l-38 -203h-203z" />
    <glyph glyph-name="c6460" 
d="M516 1262l258 264h207l-307 -264h-158z" />
    <glyph glyph-name="c6461" 
d="M680 1337l-35 25l-1 1c-29 21 -56 32 -81 32c-45 0 -82 -34 -106 -101h-125c47 145 130 219 243 219c47 0 84 -14 132 -47l32 -26c24 -19 49 -27 76 -27c52 0 92 39 107 100h125c-44 -145 -127 -219 -250 -219c-41 0 -76 14 -117 43z" />
    <glyph glyph-name="c6462" 
d="M465 1526h182l148 -264h-140z" />
    <glyph glyph-name="c6463" 
d="M338 1262l262 266h215l158 -266h-135l-140 178l-209 -178h-151z" />
    <glyph glyph-name="c6466" 
d="M1034 1528l-262 -266h-213l-158 266h134l139 -178l209 178h151z" />
    <glyph glyph-name="c6467" horiz-adv-x="821" 
d="M109 985l493 518h166l-106 -540h137l-21 -109h-137l-37 -186h-141l37 186h-416zM520 963l82 415l-393 -415h311z" />
    <glyph glyph-name="c6468" 
d="M389 1528h119c16 -81 65 -115 166 -115c115 0 184 35 223 115h119c-45 -151 -175 -242 -346 -242c-161 0 -254 81 -281 242z" />
    <glyph glyph-name="c6469" 
d="M561 1294l41 205h203l-39 -205h-205z" />
    </font>
</defs>
</svg>
