<?xml version="1.0" standalone="no"?>
<!DOCTYPE svg PUBLIC "-//W3C//DTD SVG 1.1//EN" "http://www.w3.org/Graphics/SVG/1.1/DTD/svg11.dtd" >
<svg xmlns="http://www.w3.org/2000/svg" xmlns:xlink="http://www.w3.org/1999/xlink" version="1.1">
<metadata>
Created by FontForge 20170924 at Sun Apr 16 17:33:28 2017
 By www-data
Copyright \(c\) 2017 by Hot Action Records. All Rights Reserved.
</metadata>
<defs>
<font id="ArzteSans-Roman" horiz-adv-x="1024" >
  <font-face 
    font-family="A:rzte Sans Roman"
    font-weight="400"
    font-stretch="normal"
    units-per-em="2048"
    panose-1="2 11 6 3 3 8 4 2 2 4"
    ascent="1556"
    descent="-492"
    x-height="1120"
    cap-height="1493"
    bbox="-375 -492 2636 1901"
    underline-thickness="143"
    underline-position="-284"
    unicode-range="U+000D-FB02"
  />
<missing-glyph 
d="M840 1556v-2048h-650v2048h650zM682 1419h-338v-68h133v-76h-135v-67h340v67h-135v76h135v68zM547 1155h-205v-213h340v69h-135v144zM477 1085v-74h-67v74h67zM682 886h-340v-67h135v-76h-135v-68h205v144h135v67zM682 763h-68v-135h-272v-69h340v204zM682 514h-205v-115
h70v47h67v-96h-204v164h-68v-232h340v232zM682 159h-340v-231h340v231zM614 92v-97h-204v97h204zM682 -119h-340v-68h143l-143 -96v-68h340v68h-209l143 96h66v68z" />
    <glyph glyph-name=".notdef" 
d="M840 1556v-2048h-650v2048h650zM682 1419h-338v-68h133v-76h-135v-67h340v67h-135v76h135v68zM547 1155h-205v-213h340v69h-135v144zM477 1085v-74h-67v74h67zM682 886h-340v-67h135v-76h-135v-68h205v144h135v67zM682 763h-68v-135h-272v-69h340v204zM682 514h-205v-115
h70v47h67v-96h-204v164h-68v-232h340v232zM682 159h-340v-231h340v231zM614 92v-97h-204v97h204zM682 -119h-340v-68h143l-143 -96v-68h340v68h-209l143 96h66v68z" />
    <glyph glyph-name="A" unicode="A" horiz-adv-x="1401" 
d="M16 0l570 1493h229l569 -1493h-210l-136 383h-673l-136 -383h-213zM975 551l-275 743l-274 -743h549z" />
    <glyph glyph-name="Aacute" unicode="&#xc1;" horiz-adv-x="1401" 
d="M559 1635l196 264h185l-228 -264h-153zM16 0l570 1493h229l569 -1493h-210l-136 383h-673l-136 -383h-213zM975 551l-275 743l-274 -743h549z" />
    <glyph glyph-name="Acircumflex" unicode="&#xc2;" horiz-adv-x="1401" 
d="M395 1635l211 266h188l211 -266h-139l-166 178l-166 -178h-139zM16 0l570 1493h229l569 -1493h-210l-136 383h-673l-136 -383h-213zM975 551l-275 743l-274 -743h549z" />
    <glyph glyph-name="Adieresis" unicode="&#xc4;" horiz-adv-x="1401" 
d="M310 1870h203v-203h-203v203zM599 1870h204v-203h-204v203zM889 1870h203v-203h-203v203zM16 0l570 1493h229l569 -1493h-210l-136 383h-673l-136 -383h-213zM975 551l-275 743l-274 -743h549z" />
    <glyph glyph-name="Agrave" unicode="&#xc0;" horiz-adv-x="1401" 
d="M456 1899h187l196 -264h-153zM16 0l570 1493h229l569 -1493h-210l-136 383h-673l-136 -383h-213zM975 551l-275 743l-274 -743h549z" />
    <glyph glyph-name="Aring" unicode="&#xc5;" horiz-adv-x="1401" 
d="M16 0l533 1397c-81 55 -123 132 -123 229c0 153 121 275 274 275c152 0 275 -123 275 -275c0 -93 -43 -174 -123 -229l532 -1397h-210l-136 383h-673l-136 -383h-213zM852 1626c0 84 -68 152 -152 152c-85 0 -151 -65 -151 -152c0 -84 67 -151 151 -151s152 67 152 151z
M973 551l-273 743l-272 -743h545z" />
    <glyph glyph-name="Atilde" unicode="&#xc3;" horiz-adv-x="1401" 
d="M696 1710l-57 33c-33 19 -52 25 -68 25c-48 0 -76 -35 -76 -95v-6h-125c0 135 74 219 189 219c48 0 81 -7 145 -43l57 -30c31 -17 52 -25 72 -25c43 0 72 37 72 92v6h125c-3 -133 -77 -219 -189 -219c-45 0 -76 7 -145 43zM16 0l570 1493h229l569 -1493h-210l-136 383
h-673l-136 -383h-213zM975 551l-275 743l-274 -743h549z" />
    <glyph glyph-name="AE" unicode="&#xc6;" horiz-adv-x="1995" 
d="M633 1493h1212v-170h-741v-442h711v-170h-711v-541h760v-170h-963v383h-528l-160 -383h-205zM901 1335h-129l-330 -784h459v784z" />
    <glyph glyph-name="B" unicode="B" horiz-adv-x="1405" 
d="M201 0v1493h516c308 0 481 -133 481 -369c0 -183 -87 -292 -252 -319c199 -43 314 -184 314 -387c0 -267 -188 -418 -523 -418h-536zM702 1327h-299v-450h299c197 0 293 73 293 225c0 151 -96 225 -293 225zM727 713h-324v-547h324c217 0 320 89 320 274
c0 187 -103 273 -320 273z" />
    <glyph glyph-name="C" unicode="C" horiz-adv-x="1430" 
d="M1319 1378v-213c-136 127 -290 189 -463 189c-341 0 -528 -214 -528 -609c0 -393 187 -608 528 -608c173 0 327 62 463 189v-211c-141 -96 -299 -144 -475 -144c-452 0 -729 295 -729 774c0 480 277 775 729 775c179 0 336 -47 475 -142z" />
    <glyph glyph-name="Cacute" unicode="&#x106;" horiz-adv-x="1430" 
d="M672 1635l196 264h185l-228 -264h-153zM1319 1378v-213c-136 127 -290 189 -463 189c-341 0 -528 -214 -528 -609c0 -393 187 -608 528 -608c173 0 327 62 463 189v-211c-141 -96 -299 -144 -475 -144c-452 0 -729 295 -729 774c0 480 277 775 729 775
c179 0 336 -47 475 -142z" />
    <glyph glyph-name="Ccaron" unicode="&#x10c;" horiz-adv-x="1430" 
d="M907 1635h-188l-211 266h139l166 -178l166 178h139zM1319 1378v-213c-136 127 -290 189 -463 189c-341 0 -528 -214 -528 -609c0 -393 187 -608 528 -608c173 0 327 62 463 189v-211c-141 -96 -299 -144 -475 -144c-452 0 -729 295 -729 774c0 480 277 775 729 775
c179 0 336 -47 475 -142z" />
    <glyph glyph-name="Ccedilla" unicode="&#xc7;" horiz-adv-x="1430" 
d="M856 1354c-341 0 -528 -214 -528 -609c0 -393 187 -608 528 -608c173 0 327 62 463 189v-211c-121 -82 -254 -129 -400 -141c58 -71 87 -132 87 -189c0 -119 -81 -180 -238 -180c-61 0 -119 8 -176 24v131c45 -23 92 -32 155 -32c79 0 119 33 119 94c0 35 -22 84 -68 150
c-425 19 -683 310 -683 773c0 480 277 775 729 775c179 0 336 -47 475 -142v-213c-136 127 -290 189 -463 189z" />
    <glyph glyph-name="D" unicode="D" horiz-adv-x="1577" 
d="M201 0v1493h415c579 0 840 -233 840 -745c0 -515 -264 -748 -840 -748h-415zM647 1327h-244v-1161h244c412 0 596 179 596 582c0 400 -184 579 -596 579z" />
    <glyph glyph-name="Eth" unicode="&#xd0;" horiz-adv-x="1587" 
d="M211 844v649h416c577 0 839 -233 839 -745c0 -515 -263 -748 -839 -748h-416v700h-201v144h201zM657 1327h-243v-483h336v-144h-336v-534h243c412 0 596 179 596 582c0 400 -184 579 -596 579z" />
    <glyph glyph-name="Dcaron" unicode="&#x10e;" horiz-adv-x="1229" 
d="M1126 -362h-1024v1806h1024v-1806zM217 1329v-1577h795v1577h-795z" />
    <glyph glyph-name="E" unicode="E" horiz-adv-x="1294" 
d="M201 0v1493h944v-170h-742v-442h711v-170h-711v-541h760v-170h-962z" />
    <glyph glyph-name="Eacute" unicode="&#xc9;" horiz-adv-x="1294" 
d="M529 1635l196 264h185l-228 -264h-153zM201 0v1493h944v-170h-742v-442h711v-170h-711v-541h760v-170h-962z" />
    <glyph glyph-name="Ecircumflex" unicode="&#xca;" horiz-adv-x="1294" 
d="M365 1635l211 266h188l211 -266h-139l-166 178l-166 -178h-139zM201 0v1493h944v-170h-742v-442h711v-170h-711v-541h760v-170h-962z" />
    <glyph glyph-name="Edieresis" unicode="&#xcb;" horiz-adv-x="1294" 
d="M373 1667v203h203v-203h-203zM764 1667v203h203v-203h-203zM201 0v1493h944v-170h-742v-442h711v-170h-711v-541h760v-170h-962z" />
    <glyph glyph-name="Egrave" unicode="&#xc8;" horiz-adv-x="1294" 
d="M426 1899h187l196 -264h-153zM201 0v1493h944v-170h-742v-442h711v-170h-711v-541h760v-170h-962z" />
    <glyph glyph-name="F" unicode="F" horiz-adv-x="1178" 
d="M201 0v1493h858v-170h-656v-440h592v-170h-592v-713h-202z" />
    <glyph glyph-name="G" unicode="G" horiz-adv-x="1587" 
d="M1219 213v401h-330v166h530v-641c-156 -111 -346 -168 -559 -168c-467 0 -745 287 -745 774c0 488 278 775 745 775c195 0 372 -49 520 -142v-215c-149 127 -318 191 -503 191c-365 0 -549 -205 -549 -609c0 -403 184 -608 549 -608c143 0 253 24 342 76z" />
    <glyph glyph-name="Gbreve" unicode="&#x11e;" horiz-adv-x="1587" 
d="M482 1901h118c17 -72 84 -111 195 -111c109 0 174 36 195 111h118c-13 -159 -122 -242 -313 -242c-192 0 -300 82 -313 242zM1219 213v401h-330v166h530v-641c-156 -111 -346 -168 -559 -168c-467 0 -745 287 -745 774c0 488 278 775 745 775c195 0 372 -49 520 -142
v-215c-149 127 -318 191 -503 191c-365 0 -549 -205 -549 -609c0 -403 184 -608 549 -608c143 0 253 24 342 76z" />
    <glyph glyph-name="H" unicode="H" horiz-adv-x="1540" 
d="M201 0v1493h202v-612h734v612h202v-1493h-202v711h-734v-711h-202z" />
    <glyph glyph-name="I" unicode="I" horiz-adv-x="604" 
d="M201 0v1493h202v-1493h-202z" />
    <glyph glyph-name="Iacute" unicode="&#xcd;" horiz-adv-x="604" 
d="M162 1635l196 264h185l-228 -264h-153zM201 0v1493h202v-1493h-202z" />
    <glyph glyph-name="Icircumflex" unicode="&#xce;" horiz-adv-x="604" 
d="M-2 1635l211 266h188l211 -266h-139l-166 178l-166 -178h-139zM201 0v1493h202v-1493h-202z" />
    <glyph glyph-name="Idieresis" unicode="&#xcf;" horiz-adv-x="604" 
d="M6 1667v203h203v-203h-203zM397 1667v203h203v-203h-203zM201 0v1493h202v-1493h-202z" />
    <glyph glyph-name="Idotaccent" unicode="&#x130;" horiz-adv-x="604" 
d="M201 1667v205h204v-205h-204zM201 0v1493h202v-1493h-202z" />
    <glyph glyph-name="Igrave" unicode="&#xcc;" horiz-adv-x="604" 
d="M59 1899h187l196 -264h-153zM201 0v1493h202v-1493h-202z" />
    <glyph glyph-name="J" unicode="J" horiz-adv-x="604" 
d="M201 104v1389h202v-1389c0 -360 -129 -514 -432 -514h-77v170h63c179 0 244 85 244 344z" />
    <glyph glyph-name="K" unicode="K" horiz-adv-x="1343" 
d="M201 0v1493h202v-631l670 631h260l-741 -696l794 -797h-266l-717 719v-719h-202z" />
    <glyph glyph-name="L" unicode="L" horiz-adv-x="1141" 
d="M201 0v1493h202v-1323h727v-170h-929z" />
    <glyph glyph-name="Lslash" unicode="&#x141;" horiz-adv-x="1151" 
d="M211 733v760h203v-616l313 219l80 -111l-393 -274v-541h727v-170h-930v571l-148 -106l-77 110z" />
    <glyph glyph-name="M" unicode="M" horiz-adv-x="1767" 
d="M201 0v1493h301l381 -1016l383 1016h301v-1493h-197v1311l-385 -1024h-203l-385 1024v-1311h-196z" />
    <glyph glyph-name="N" unicode="N" horiz-adv-x="1532" 
d="M201 0v1493h272l662 -1249v1249h196v-1493h-272l-662 1249v-1249h-196z" />
    <glyph glyph-name="Ntilde" unicode="&#xd1;" horiz-adv-x="1532" 
d="M762 1710l-57 33c-33 19 -52 25 -68 25c-48 0 -76 -35 -76 -95v-6h-125c0 135 74 219 189 219c48 0 81 -7 145 -43l57 -30c31 -17 52 -25 72 -25c43 0 72 37 72 92v6h125c-3 -133 -77 -219 -189 -219c-45 0 -76 7 -145 43zM201 0v1493h272l662 -1249v1249h196v-1493h-272
l-662 1249v-1249h-196z" />
    <glyph glyph-name="O" unicode="O" horiz-adv-x="1612" 
d="M807 1520c419 0 690 -303 690 -775c0 -471 -271 -774 -690 -774c-420 0 -692 302 -692 774s272 775 692 775zM807 1356c-293 0 -479 -234 -479 -611c0 -376 186 -610 479 -610s477 234 477 610c0 377 -184 611 -477 611z" />
    <glyph glyph-name="Oacute" unicode="&#xd3;" horiz-adv-x="1612" 
d="M666 1635l196 264h185l-228 -264h-153zM807 1520c419 0 690 -303 690 -775c0 -471 -271 -774 -690 -774c-420 0 -692 302 -692 774s272 775 692 775zM807 1356c-293 0 -479 -234 -479 -611c0 -376 186 -610 479 -610s477 234 477 610c0 377 -184 611 -477 611z" />
    <glyph glyph-name="Ocircumflex" unicode="&#xd4;" horiz-adv-x="1612" 
d="M502 1635l211 266h188l211 -266h-139l-166 178l-166 -178h-139zM807 1520c419 0 690 -303 690 -775c0 -471 -271 -774 -690 -774c-420 0 -692 302 -692 774s272 775 692 775zM807 1356c-293 0 -479 -234 -479 -611c0 -376 186 -610 479 -610s477 234 477 610
c0 377 -184 611 -477 611z" />
    <glyph glyph-name="Odieresis" unicode="&#xd6;" horiz-adv-x="1612" 
d="M510 1667v203h203v-203h-203zM901 1667v203h203v-203h-203zM807 1520c419 0 690 -303 690 -775c0 -471 -271 -774 -690 -774c-420 0 -692 302 -692 774s272 775 692 775zM807 1356c-293 0 -479 -234 -479 -611c0 -376 186 -610 479 -610s477 234 477 610
c0 377 -184 611 -477 611z" />
    <glyph glyph-name="Ograve" unicode="&#xd2;" horiz-adv-x="1612" 
d="M563 1899h187l196 -264h-153zM807 1520c419 0 690 -303 690 -775c0 -471 -271 -774 -690 -774c-420 0 -692 302 -692 774s272 775 692 775zM807 1356c-293 0 -479 -234 -479 -611c0 -376 186 -610 479 -610s477 234 477 610c0 377 -184 611 -477 611z" />
    <glyph glyph-name="Oslash" unicode="&#xd8;" horiz-adv-x="1612" 
d="M102 18l170 201c-104 136 -157 313 -157 526c0 472 272 775 692 775c173 0 322 -52 438 -152l162 191l102 -89l-170 -198c104 -137 158 -316 158 -527c0 -471 -271 -774 -690 -774c-171 0 -319 50 -440 150l-162 -191zM406 377l718 848c-81 85 -190 131 -317 131
c-293 0 -479 -234 -479 -611c0 -149 26 -277 78 -368zM1206 1112l-717 -846c83 -85 191 -131 318 -131c293 0 477 234 477 610c0 149 -26 272 -78 367z" />
    <glyph glyph-name="Otilde" unicode="&#xd5;" horiz-adv-x="1612" 
d="M803 1710l-57 33c-33 19 -52 25 -68 25c-48 0 -76 -35 -76 -95v-6h-125c0 135 74 219 189 219c48 0 81 -7 145 -43l57 -30c31 -17 52 -25 72 -25c43 0 72 37 72 92v6h125c-3 -133 -77 -219 -189 -219c-45 0 -76 7 -145 43zM807 1520c419 0 690 -303 690 -775
c0 -471 -271 -774 -690 -774c-420 0 -692 302 -692 774s272 775 692 775zM807 1356c-293 0 -479 -234 -479 -611c0 -376 186 -610 479 -610s477 234 477 610c0 377 -184 611 -477 611z" />
    <glyph glyph-name="OE" unicode="&#x152;" horiz-adv-x="2191" 
d="M995 1493h1047v-170h-742v-442h711v-170h-711v-541h760v-170h-1065c-577 0 -880 257 -880 748c0 487 303 745 880 745zM1098 170v1153h-129c-428 0 -641 -191 -641 -575c0 -385 213 -578 641 -578h129z" />
    <glyph glyph-name="P" unicode="P" horiz-adv-x="1235" 
d="M201 0v1493h456c335 0 508 -154 508 -446c0 -295 -173 -447 -508 -447h-254v-600h-202zM657 1327h-254v-561h254c188 0 295 101 295 281c0 179 -107 280 -295 280z" />
    <glyph glyph-name="Thorn" unicode="&#xde;" horiz-adv-x="1239" 
d="M201 0v1493h202v-264h254c335 0 508 -152 508 -445s-173 -446 -508 -446h-254v-338h-202zM657 1063h-254v-559h254c188 0 295 101 295 280s-106 279 -295 279z" />
    <glyph glyph-name="Q" unicode="Q" horiz-adv-x="1612" 
d="M1090 27l266 -291h-244l-221 239c-44 -3 -63 -4 -84 -4c-420 0 -692 303 -692 774c0 472 272 775 692 775c419 0 690 -303 690 -775c0 -347 -143 -601 -407 -718zM807 1356c-293 0 -479 -234 -479 -611c0 -376 186 -610 479 -610s477 234 477 610
c0 377 -184 611 -477 611z" />
    <glyph glyph-name="R" unicode="R" horiz-adv-x="1423" 
d="M909 700c87 -29 167 -124 250 -292l205 -408h-217l-191 383c-99 200 -173 248 -333 248h-220v-631h-202v1493h456c341 0 508 -142 508 -430c0 -188 -89 -315 -256 -363zM657 1327h-254v-530h254c195 0 295 91 295 266s-100 264 -295 264z" />
    <glyph glyph-name="S" unicode="S" horiz-adv-x="1300" 
d="M1096 1444v-197c-153 73 -287 109 -414 109c-220 0 -344 -89 -344 -246c0 -132 64 -190 285 -231l122 -25c301 -57 441 -199 441 -442c0 -289 -197 -441 -572 -441c-141 0 -302 32 -473 95v208c164 -92 321 -139 473 -139c231 0 361 94 361 262c0 147 -84 224 -289 265
l-123 24c-301 60 -428 180 -428 408c0 264 197 426 524 426c140 0 285 -25 437 -76z" />
    <glyph glyph-name="Scaron" unicode="&#x160;" horiz-adv-x="1300" 
d="M745 1635h-188l-211 266h139l166 -178l166 178h139zM1096 1444v-197c-153 73 -287 109 -414 109c-220 0 -344 -89 -344 -246c0 -132 64 -190 285 -231l122 -25c301 -57 441 -199 441 -442c0 -289 -197 -441 -572 -441c-141 0 -302 32 -473 95v208
c164 -92 321 -139 473 -139c231 0 361 94 361 262c0 147 -84 224 -289 265l-123 24c-301 60 -428 180 -428 408c0 264 197 426 524 426c140 0 285 -25 437 -76z" />
    <glyph glyph-name="Scedilla" unicode="&#x15e;" horiz-adv-x="1300" 
d="M1186 412c0 -251 -148 -399 -433 -433c61 -74 91 -136 91 -194c0 -119 -81 -180 -238 -180c-61 0 -119 8 -176 24v131c45 -23 92 -32 155 -32c79 0 119 33 119 94c0 35 -22 83 -67 149h-23c-141 0 -302 32 -473 95v208c164 -92 321 -139 473 -139c231 0 361 94 361 262
c0 147 -84 224 -289 265l-123 24c-301 60 -428 180 -428 408c0 264 197 426 524 426c140 0 285 -25 437 -76v-197c-153 73 -287 109 -414 109c-220 0 -344 -89 -344 -246c0 -132 64 -190 285 -231l122 -25c301 -57 441 -199 441 -442z" />
    <glyph glyph-name="T" unicode="T" horiz-adv-x="1251" 
d="M-6 1323v170h1263v-170h-530v-1323h-203v1323h-530z" />
    <glyph glyph-name="U" unicode="U" horiz-adv-x="1499" 
d="M178 561v932h203v-907c0 -320 109 -451 369 -451c259 0 368 131 368 451v907h203v-932c0 -389 -195 -590 -571 -590c-377 0 -572 201 -572 590z" />
    <glyph glyph-name="Uacute" unicode="&#xda;" horiz-adv-x="1499" 
d="M609 1635l196 264h185l-228 -264h-153zM178 561v932h203v-907c0 -320 109 -451 369 -451c259 0 368 131 368 451v907h203v-932c0 -389 -195 -590 -571 -590c-377 0 -572 201 -572 590z" />
    <glyph glyph-name="Ucircumflex" unicode="&#xdb;" horiz-adv-x="1499" 
d="M445 1635l211 266h188l211 -266h-139l-166 178l-166 -178h-139zM178 561v932h203v-907c0 -320 109 -451 369 -451c259 0 368 131 368 451v907h203v-932c0 -389 -195 -590 -571 -590c-377 0 -572 201 -572 590z" />
    <glyph glyph-name="Udieresis" unicode="&#xdc;" horiz-adv-x="1499" 
d="M453 1667v203h203v-203h-203zM844 1667v203h203v-203h-203zM178 561v932h203v-907c0 -320 109 -451 369 -451c259 0 368 131 368 451v907h203v-932c0 -389 -195 -590 -571 -590c-377 0 -572 201 -572 590z" />
    <glyph glyph-name="Ugrave" unicode="&#xd9;" horiz-adv-x="1499" 
d="M506 1899h187l196 -264h-153zM178 561v932h203v-907c0 -320 109 -451 369 -451c259 0 368 131 368 451v907h203v-932c0 -389 -195 -590 -571 -590c-377 0 -572 201 -572 590z" />
    <glyph glyph-name="V" unicode="V" horiz-adv-x="1401" 
d="M815 0h-229l-570 1493h211l473 -1257l474 1257h210z" />
    <glyph glyph-name="W" unicode="W" horiz-adv-x="2025" 
d="M442 0l-374 1493h204l314 -1262l313 1262h227l314 -1262l313 1262h205l-375 -1493h-254l-315 1296l-318 -1296h-254z" />
    <glyph glyph-name="X" unicode="X" horiz-adv-x="1403" 
d="M594 797l-465 696h217l371 -555l373 555h217l-480 -717l512 -776h-217l-420 635l-423 -635h-218z" />
    <glyph glyph-name="Y" unicode="Y" horiz-adv-x="1251" 
d="M524 711l-528 782h217l414 -614l411 614h217l-528 -782v-711h-203v711z" />
    <glyph glyph-name="Yacute" unicode="&#xdd;" horiz-adv-x="1251" 
d="M486 1635l196 264h185l-228 -264h-153zM524 711l-528 782h217l414 -614l411 614h217l-528 -782v-711h-203v711z" />
    <glyph glyph-name="Ydieresis" unicode="&#x178;" horiz-adv-x="1251" 
d="M330 1667v203h203v-203h-203zM721 1667v203h203v-203h-203zM524 711l-528 782h217l414 -614l411 614h217l-528 -782v-711h-203v711z" />
    <glyph glyph-name="Z" unicode="Z" horiz-adv-x="1403" 
d="M115 1323v170h1173v-154l-944 -1169h967v-170h-1219v154l944 1169h-921z" />
    <glyph glyph-name="Zcaron" unicode="&#x17d;" horiz-adv-x="1403" 
d="M796 1635h-188l-211 266h139l166 -178l166 178h139zM115 1323v170h1173v-154l-944 -1169h967v-170h-1219v154l944 1169h-921z" />
    <glyph glyph-name="Adieresis.001" horiz-adv-x="1401" 
d="M354 1870h202v-203h-202v203zM598 1870h203v-203h-203v203zM849 1869h203v-202h-203v202zM16 0l570 1493h229l569 -1493h-210l-136 383h-673l-136 -383h-213zM975 551l-275 743l-274 -743h549z" />
    <glyph glyph-name="a" unicode="a" horiz-adv-x="1255" 
d="M1069 639v-639h-184v170c-84 -136 -206 -199 -387 -199c-229 0 -375 139 -375 355c0 252 169 381 504 381h258v18c0 169 -117 266 -318 266c-128 0 -250 -31 -362 -92v170c135 52 261 78 381 78c324 0 483 -167 483 -508zM885 563h-183c-297 0 -395 -61 -395 -225
c0 -131 92 -213 240 -213c204 0 338 157 338 397v41z" />
    <glyph glyph-name="aacute" unicode="&#xe1;" horiz-adv-x="1255" 
d="M453 1262l280 376h199l-326 -376h-153zM1069 639v-639h-184v170c-84 -136 -206 -199 -387 -199c-229 0 -375 139 -375 355c0 252 169 381 504 381h258v18c0 169 -117 266 -318 266c-128 0 -250 -31 -362 -92v170c135 52 261 78 381 78c324 0 483 -167 483 -508zM885 563
h-183c-297 0 -395 -61 -395 -225c0 -131 92 -213 240 -213c204 0 338 157 338 397v41z" />
    <glyph glyph-name="acircumflex" unicode="&#xe2;" horiz-adv-x="1255" 
d="M275 1262l245 376h148l245 -376h-139l-180 245l-180 -245h-139zM1069 639v-639h-184v170c-84 -136 -206 -199 -387 -199c-229 0 -375 139 -375 355c0 252 169 381 504 381h258v18c0 169 -117 266 -318 266c-128 0 -250 -31 -362 -92v170c135 52 261 78 381 78
c324 0 483 -167 483 -508zM885 563h-183c-297 0 -395 -61 -395 -225c0 -131 92 -213 240 -213c204 0 338 157 338 397v41z" />
    <glyph glyph-name="adieresis" unicode="&#xe4;" horiz-adv-x="1255" 
d="M220 1557h203v-203h-203v203zM799 1557h203v-203h-203v203zM509 1556h204v-203h-204v203zM1069 639v-639h-184v170c-84 -136 -206 -199 -387 -199c-229 0 -375 139 -375 355c0 252 169 381 504 381h258v18c0 169 -117 266 -318 266c-128 0 -250 -31 -362 -92v170
c135 52 261 78 381 78c324 0 483 -167 483 -508zM885 563h-183c-297 0 -395 -61 -395 -225c0 -131 92 -213 240 -213c204 0 338 157 338 397v41z" />
    <glyph glyph-name="agrave" unicode="&#xe0;" horiz-adv-x="1255" 
d="M252 1638h197l282 -374h-153zM1069 639v-639h-184v170c-84 -136 -206 -199 -387 -199c-229 0 -375 139 -375 355c0 252 169 381 504 381h258v18c0 169 -117 266 -318 266c-128 0 -250 -31 -362 -92v170c135 52 261 78 381 78c324 0 483 -167 483 -508zM885 563h-183
c-297 0 -395 -61 -395 -225c0 -131 92 -213 240 -213c204 0 338 157 338 397v41z" />
    <glyph glyph-name="aring" unicode="&#xe5;" horiz-adv-x="1255" 
d="M868 1524c0 -153 -121 -275 -274 -275s-274 122 -274 275s121 274 274 274s274 -121 274 -274zM746 1524c0 84 -67 151 -152 151c-87 0 -152 -66 -152 -151c0 -87 65 -152 152 -152c85 0 152 67 152 152zM1069 639v-639h-184v170c-84 -136 -206 -199 -387 -199
c-229 0 -375 139 -375 355c0 252 169 381 504 381h258v18c0 169 -117 266 -318 266c-128 0 -250 -31 -362 -92v170c135 52 261 78 381 78c324 0 483 -167 483 -508zM885 563h-183c-297 0 -395 -61 -395 -225c0 -131 92 -213 240 -213c204 0 338 157 338 397v41z" />
    <glyph glyph-name="atilde" unicode="&#xe3;" horiz-adv-x="1255" 
d="M590 1370l-57 55c-29 27 -51 39 -68 39c-25 0 -44 -12 -56 -36c-12 -25 -19 -64 -20 -119h-125c3 180 74 282 195 282c51 0 90 -17 139 -61l57 -55c29 -27 51 -39 68 -39c25 0 44 12 56 37c12 24 19 63 20 118h125c-3 -180 -74 -282 -195 -282c-51 0 -90 17 -139 61z
M1069 639v-639h-184v170c-84 -136 -206 -199 -387 -199c-229 0 -375 139 -375 355c0 252 169 381 504 381h258v18c0 169 -117 266 -318 266c-128 0 -250 -31 -362 -92v170c135 52 261 78 381 78c324 0 483 -167 483 -508zM885 563h-183c-297 0 -395 -61 -395 -225
c0 -131 92 -213 240 -213c204 0 338 157 338 397v41z" />
    <glyph glyph-name="ae" unicode="&#xe6;" horiz-adv-x="2011" 
d="M995 963c99 120 242 184 418 184c301 0 490 -208 490 -541v-90h-846c16 -255 155 -391 399 -391c139 0 271 35 404 106v-174c-133 -56 -273 -86 -414 -86c-223 0 -389 81 -492 240c-97 -160 -241 -240 -432 -240c-252 0 -399 131 -399 355c0 252 169 381 504 381h258v18
c0 169 -117 266 -318 266c-128 0 -250 -31 -362 -92v170c135 52 261 78 381 78c189 0 337 -67 409 -184zM1063 659l655 1c-1 201 -120 331 -303 331c-204 0 -333 -121 -352 -332zM885 563h-183c-297 0 -395 -61 -395 -225c0 -131 92 -213 240 -213c204 0 338 157 338 397v41
z" />
    <glyph glyph-name="b" unicode="b" horiz-adv-x="1300" 
d="M371 1556v-606c77 133 194 197 358 197c272 0 459 -236 459 -588s-187 -588 -459 -588c-164 0 -281 64 -358 197v-168h-185v1556h185zM997 559c0 271 -118 434 -313 434s-313 -163 -313 -434s118 -434 313 -434s313 163 313 434z" />
    <glyph glyph-name="c" unicode="c" horiz-adv-x="1126" 
d="M999 1077v-172c-104 57 -208 86 -315 86c-239 0 -377 -159 -377 -432s138 -432 377 -432c107 0 211 29 315 86v-170c-103 -48 -211 -72 -335 -72c-337 0 -551 228 -551 588c0 365 214 588 563 588c113 0 222 -23 323 -70z" />
    <glyph glyph-name="cacute" unicode="&#x107;" horiz-adv-x="1126" 
d="M508 1262l280 376h199l-326 -376h-153zM999 1077v-172c-104 57 -208 86 -315 86c-239 0 -377 -159 -377 -432s138 -432 377 -432c107 0 211 29 315 86v-170c-103 -48 -211 -72 -335 -72c-337 0 -551 228 -551 588c0 365 214 588 563 588c113 0 222 -23 323 -70z" />
    <glyph glyph-name="ccaron" unicode="&#x10d;" horiz-adv-x="1126" 
d="M723 1262h-148l-245 376h139l180 -245l180 245h139zM999 1077v-172c-104 57 -208 86 -315 86c-239 0 -377 -159 -377 -432s138 -432 377 -432c107 0 211 29 315 86v-170c-103 -48 -211 -72 -335 -72c-337 0 -551 228 -551 588c0 365 214 588 563 588
c113 0 222 -23 323 -70z" />
    <glyph glyph-name="ccedilla" unicode="&#xe7;" horiz-adv-x="1126" 
d="M684 991c-239 0 -377 -159 -377 -432s138 -432 377 -432c107 0 211 29 315 86v-170c-76 -35 -154 -58 -240 -67c60 -72 89 -133 89 -191c0 -119 -81 -180 -238 -180c-61 0 -119 8 -176 24v131c45 -23 92 -32 155 -32c79 0 119 33 119 94c0 35 -22 83 -67 149
c-324 11 -528 236 -528 588c0 365 214 588 563 588c113 0 222 -23 323 -70v-172c-104 57 -208 86 -315 86z" />
    <glyph glyph-name="d" unicode="d" horiz-adv-x="1300" 
d="M930 950v606h184v-1556h-184v168c-77 -133 -194 -197 -359 -197c-271 0 -458 236 -458 588s187 588 458 588c165 0 282 -64 359 -197zM303 559c0 -271 118 -434 313 -434s314 163 314 434s-119 434 -314 434s-313 -163 -313 -434z" />
    <glyph glyph-name="eth" unicode="&#xf0;" horiz-adv-x="1253" 
d="M737 1327l164 -186c168 -191 240 -373 240 -604c0 -340 -207 -566 -514 -566c-308 0 -514 226 -514 566c0 333 202 561 497 561c24 0 56 -3 112 -10l-159 180l-319 -107l-33 99l281 92l-181 204h228l127 -145l333 111l33 -97zM838 915c-67 23 -124 33 -179 33
c-223 0 -352 -151 -352 -411c0 -251 125 -410 320 -410c193 0 319 159 319 410c0 163 -36 287 -108 378z" />
    <glyph glyph-name="dcroat" unicode="&#x111;" horiz-adv-x="1300" 
d="M930 950v334h-326v125h326v147h184v-147h154v-125h-154v-1284h-184v168c-77 -133 -194 -197 -359 -197c-271 0 -458 236 -458 588s187 588 458 588c165 0 282 -64 359 -197zM303 559c0 -271 118 -434 313 -434s314 163 314 434s-119 434 -314 434s-313 -163 -313 -434z
" />
    <glyph glyph-name="e" unicode="e" horiz-adv-x="1260" 
d="M1151 606v-90h-846c16 -253 156 -389 400 -389c141 0 272 35 403 104v-174c-132 -56 -271 -86 -414 -86c-357 0 -581 223 -581 578c0 367 213 598 549 598c301 0 489 -208 489 -541zM311 659l656 1c-3 201 -122 331 -303 331c-205 0 -334 -121 -353 -332z" />
    <glyph glyph-name="eacute" unicode="&#xe9;" horiz-adv-x="1260" 
d="M510 1262l280 376h199l-326 -376h-153zM1151 606v-90h-846c16 -253 156 -389 400 -389c141 0 272 35 403 104v-174c-132 -56 -271 -86 -414 -86c-357 0 -581 223 -581 578c0 367 213 598 549 598c301 0 489 -208 489 -541zM311 659l656 1c-3 201 -122 331 -303 331
c-205 0 -334 -121 -353 -332z" />
    <glyph glyph-name="ecircumflex" unicode="&#xea;" horiz-adv-x="1260" 
d="M332 1262l245 376h148l245 -376h-139l-180 245l-180 -245h-139zM1151 606v-90h-846c16 -253 156 -389 400 -389c141 0 272 35 403 104v-174c-132 -56 -271 -86 -414 -86c-357 0 -581 223 -581 578c0 367 213 598 549 598c301 0 489 -208 489 -541zM311 659l656 1
c-3 201 -122 331 -303 331c-205 0 -334 -121 -353 -332z" />
    <glyph glyph-name="edieresis" unicode="&#xeb;" horiz-adv-x="1260" 
d="M354 1350v202h203v-202h-203zM745 1350v202h203v-202h-203zM1151 606v-90h-846c16 -253 156 -389 400 -389c141 0 272 35 403 104v-174c-132 -56 -271 -86 -414 -86c-357 0 -581 223 -581 578c0 367 213 598 549 598c301 0 489 -208 489 -541zM311 659l656 1
c-3 201 -122 331 -303 331c-205 0 -334 -121 -353 -332z" />
    <glyph glyph-name="egrave" unicode="&#xe8;" horiz-adv-x="1260" 
d="M309 1638h197l282 -374h-153zM1151 606v-90h-846c16 -253 156 -389 400 -389c141 0 272 35 403 104v-174c-132 -56 -271 -86 -414 -86c-357 0 -581 223 -581 578c0 367 213 598 549 598c301 0 489 -208 489 -541zM311 659l656 1c-3 201 -122 331 -303 331
c-205 0 -334 -121 -353 -332z" />
    <glyph glyph-name="f" unicode="f" horiz-adv-x="721" 
d="M586 1556h174v-153h-176c-132 0 -176 -45 -176 -184v-99h303v-143h-303v-977h-185v977h-176v143h176v78c0 249 111 358 363 358z" />
    <glyph glyph-name="g" unicode="g" horiz-adv-x="1300" 
d="M1114 1120v-981c0 -381 -167 -565 -516 -565c-129 0 -242 19 -350 59v179c108 -59 212 -86 321 -86c241 0 361 125 361 380v91c-76 -132 -194 -197 -359 -197c-275 0 -458 228 -458 573c0 347 183 574 458 574c165 0 283 -65 359 -197v170h184zM930 573
c0 267 -115 420 -314 420c-197 0 -313 -153 -313 -420c0 -265 116 -419 313 -419c199 0 314 154 314 419z" />
    <glyph glyph-name="gbreve" unicode="&#x11f;" horiz-adv-x="1300" 
d="M338 1608h118c15 -100 79 -150 195 -150c115 0 178 49 195 150h118c-13 -191 -120 -287 -313 -287s-300 96 -313 287zM1114 1120v-981c0 -381 -167 -565 -516 -565c-129 0 -242 19 -350 59v179c108 -59 212 -86 321 -86c241 0 361 125 361 380v91
c-76 -132 -194 -197 -359 -197c-275 0 -458 228 -458 573c0 347 183 574 458 574c165 0 283 -65 359 -197v170h184zM930 573c0 267 -115 420 -314 420c-197 0 -313 -153 -313 -420c0 -265 116 -419 313 -419c199 0 314 154 314 419z" />
    <glyph glyph-name="h" unicode="h" horiz-adv-x="1298" 
d="M1124 676v-676h-184v670c0 212 -83 317 -248 317c-199 0 -321 -135 -321 -354v-633h-185v1556h185v-610c88 135 206 201 362 201c257 0 391 -162 391 -471z" />
    <glyph glyph-name="i" unicode="i" horiz-adv-x="569" 
d="M193 1323v233h184v-233h-184zM193 0v1120h184v-1120h-184z" />
    <glyph glyph-name="dotlessi" unicode="&#x131;" horiz-adv-x="569" 
d="M193 0v1120h184v-1120h-184z" />
    <glyph glyph-name="iacute" unicode="&#xed;" horiz-adv-x="569" 
d="M144 1262l280 376h199l-326 -376h-153zM193 0v1120h184v-1120h-184z" />
    <glyph glyph-name="icircumflex" unicode="&#xee;" horiz-adv-x="569" 
d="M-34 1262l245 376h148l245 -376h-139l-180 245l-180 -245h-139zM193 0v1120h184v-1120h-184z" />
    <glyph glyph-name="idieresis" unicode="&#xef;" horiz-adv-x="569" 
d="M-12 1350v202h203v-202h-203zM379 1350v202h203v-202h-203zM193 0v1120h184v-1120h-184z" />
    <glyph glyph-name="igrave" unicode="&#xec;" horiz-adv-x="569" 
d="M-57 1638h197l282 -374h-153zM193 0v1120h184v-1120h-184z" />
    <glyph glyph-name="j" unicode="j" horiz-adv-x="569" 
d="M193 1323v233h184v-233h-184zM193 -20v1140h184v-1140c0 -285 -103 -406 -344 -406h-70v156h49c140 0 181 46 181 250z" />
    <glyph glyph-name="k" unicode="k" horiz-adv-x="1186" 
d="M186 0v1556h185v-919l549 483h235l-594 -524l619 -596h-240l-569 547v-547h-185z" />
    <glyph glyph-name="l" unicode="l" horiz-adv-x="569" 
d="M193 0v1556h184v-1556h-184z" />
    <glyph glyph-name="lslash" unicode="&#x142;" horiz-adv-x="582" 
d="M199 825v731h184v-602l125 90l76 -106l-201 -141v-797h-184v666l-123 -88l-74 106z" />
    <glyph glyph-name="m" unicode="m" horiz-adv-x="1995" 
d="M1065 905c92 165 218 242 391 242c233 0 365 -170 365 -471v-676h-185v670c0 215 -75 317 -231 317c-191 0 -309 -135 -309 -354v-633h-185v670c0 216 -74 317 -233 317c-188 0 -307 -137 -307 -354v-633h-185v1120h185v-174c84 137 199 201 360 201
c163 0 279 -85 334 -242z" />
    <glyph glyph-name="n" unicode="n" horiz-adv-x="1298" 
d="M1124 676v-676h-184v670c0 212 -83 317 -248 317c-199 0 -321 -135 -321 -354v-633h-185v1120h185v-174c88 135 206 201 362 201c257 0 391 -162 391 -471z" />
    <glyph glyph-name="ntilde" unicode="&#xf1;" horiz-adv-x="1298" 
d="M660 1370l-57 55c-29 27 -51 39 -68 39c-25 0 -44 -12 -56 -36c-12 -25 -19 -64 -20 -119h-125c3 180 74 282 195 282c51 0 90 -17 139 -61l57 -55c29 -27 51 -39 68 -39c25 0 44 12 56 37c12 24 19 63 20 118h125c-3 -180 -74 -282 -195 -282c-51 0 -90 17 -139 61z
M1124 676v-676h-184v670c0 212 -83 317 -248 317c-199 0 -321 -135 -321 -354v-633h-185v1120h185v-174c88 135 206 201 362 201c257 0 391 -162 391 -471z" />
    <glyph glyph-name="o" unicode="o" horiz-adv-x="1253" 
d="M627 1147c320 0 514 -220 514 -588c0 -367 -194 -588 -514 -588c-321 0 -514 221 -514 588c0 368 193 588 514 588zM627 991c-197 0 -320 -164 -320 -432s121 -432 320 -432c196 0 319 165 319 432c0 265 -123 432 -319 432z" />
    <glyph glyph-name="oacute" unicode="&#xf3;" horiz-adv-x="1253" 
d="M486 1262l280 376h199l-326 -376h-153zM627 1147c320 0 514 -220 514 -588c0 -367 -194 -588 -514 -588c-321 0 -514 221 -514 588c0 368 193 588 514 588zM627 991c-197 0 -320 -164 -320 -432s121 -432 320 -432c196 0 319 165 319 432c0 265 -123 432 -319 432z" />
    <glyph glyph-name="ocircumflex" unicode="&#xf4;" horiz-adv-x="1253" 
d="M308 1262l245 376h148l245 -376h-139l-180 245l-180 -245h-139zM627 1147c320 0 514 -220 514 -588c0 -367 -194 -588 -514 -588c-321 0 -514 221 -514 588c0 368 193 588 514 588zM627 991c-197 0 -320 -164 -320 -432s121 -432 320 -432c196 0 319 165 319 432
c0 265 -123 432 -319 432z" />
    <glyph glyph-name="odieresis" unicode="&#xf6;" horiz-adv-x="1253" 
d="M330 1350v202h203v-202h-203zM721 1350v202h203v-202h-203zM627 1147c320 0 514 -220 514 -588c0 -367 -194 -588 -514 -588c-321 0 -514 221 -514 588c0 368 193 588 514 588zM627 991c-197 0 -320 -164 -320 -432s121 -432 320 -432c196 0 319 165 319 432
c0 265 -123 432 -319 432z" />
    <glyph glyph-name="ograve" unicode="&#xf2;" horiz-adv-x="1253" 
d="M285 1638h197l282 -374h-153zM627 1147c320 0 514 -220 514 -588c0 -367 -194 -588 -514 -588c-321 0 -514 221 -514 588c0 368 193 588 514 588zM627 991c-197 0 -320 -164 -320 -432s121 -432 320 -432c196 0 319 165 319 432c0 265 -123 432 -319 432z" />
    <glyph glyph-name="oslash" unicode="&#xf8;" horiz-adv-x="1253" 
d="M72 -16l149 182c-72 103 -108 234 -108 393c0 368 193 588 514 588c124 0 230 -34 319 -103l139 168l95 -79l-146 -179c71 -103 107 -235 107 -395c0 -367 -194 -588 -514 -588c-128 0 -236 35 -320 103l-139 -168zM346 317l488 592c-56 55 -124 82 -207 82
c-201 0 -320 -165 -320 -446c0 -96 12 -167 39 -228zM905 801l-487 -592c55 -56 122 -82 209 -82c196 0 319 165 319 432c0 105 -13 181 -41 242z" />
    <glyph glyph-name="otilde" unicode="&#xf5;" horiz-adv-x="1253" 
d="M623 1370l-57 55c-29 27 -51 39 -68 39c-25 0 -44 -12 -56 -36c-12 -25 -19 -64 -20 -119h-125c3 180 74 282 195 282c51 0 90 -17 139 -61l57 -55c29 -27 51 -39 68 -39c25 0 44 12 56 37c12 24 19 63 20 118h125c-3 -180 -74 -282 -195 -282c-51 0 -90 17 -139 61z
M627 1147c320 0 514 -220 514 -588c0 -367 -194 -588 -514 -588c-321 0 -514 221 -514 588c0 368 193 588 514 588zM627 991c-197 0 -320 -164 -320 -432s121 -432 320 -432c196 0 319 165 319 432c0 265 -123 432 -319 432z" />
    <glyph glyph-name="oe" unicode="&#x153;" horiz-adv-x="2095" 
d="M1987 606v-90h-846c16 -253 155 -389 399 -389c141 0 273 35 404 104v-174c-133 -56 -273 -86 -414 -86c-213 0 -375 74 -483 219c-95 -147 -233 -219 -420 -219c-321 0 -514 221 -514 588c0 368 193 588 514 588c187 0 329 -75 417 -219c104 143 262 219 453 219
c301 0 490 -208 490 -541zM627 991c-197 0 -320 -164 -320 -432s121 -432 320 -432c196 0 319 165 319 432c0 265 -123 432 -319 432zM1147 659l655 1c-3 203 -120 331 -303 331c-204 0 -333 -121 -352 -332z" />
    <glyph glyph-name="p" unicode="p" horiz-adv-x="1300" 
d="M371 168v-594h-185v1546h185v-170c77 133 194 197 358 197c272 0 459 -236 459 -588s-187 -588 -459 -588c-164 0 -281 64 -358 197zM997 559c0 271 -118 434 -313 434s-313 -163 -313 -434s118 -434 313 -434s313 163 313 434z" />
    <glyph glyph-name="thorn" unicode="&#xfe;" horiz-adv-x="1300" 
d="M371 168v-594h-185v1982h185v-606c77 133 194 197 358 197c272 0 459 -236 459 -588s-187 -588 -459 -588c-164 0 -281 64 -358 197zM997 559c0 271 -118 434 -313 434s-313 -163 -313 -434s118 -434 313 -434s313 163 313 434z" />
    <glyph glyph-name="q" unicode="q" horiz-adv-x="1300" 
d="M930 -426v594c-77 -133 -194 -197 -359 -197c-271 0 -458 236 -458 588s187 588 458 588c165 0 282 -64 359 -197v170h184v-1546h-184zM303 559c0 -271 118 -434 313 -434s314 163 314 434s-119 434 -314 434s-313 -163 -313 -434z" />
    <glyph glyph-name="r" unicode="r" horiz-adv-x="842" 
d="M841 1137l1 -189c-41 24 -89 35 -148 35c-208 0 -323 -140 -323 -393v-590h-185v1120h185v-174c77 136 200 201 377 201c25 0 56 -3 93 -10z" />
    <glyph glyph-name="s" unicode="s" horiz-adv-x="1067" 
d="M907 1087v-174c-104 53 -216 80 -336 80c-183 0 -274 -56 -274 -168c0 -43 16 -76 49 -100c33 -25 98 -48 197 -70l63 -14c261 -56 361 -149 361 -332c0 -208 -175 -338 -463 -338c-120 0 -249 23 -393 70v190c136 -71 268 -106 397 -106c173 0 270 62 270 170
c0 50 -17 88 -50 115c-34 27 -108 52 -222 77l-64 15c-228 48 -323 142 -323 315c0 211 155 330 430 330c136 0 257 -20 358 -60z" />
    <glyph glyph-name="scaron" unicode="&#x161;" horiz-adv-x="1067" 
d="M609 1262h-148l-245 376h139l180 -245l180 245h139zM907 1087v-174c-104 53 -216 80 -336 80c-183 0 -274 -56 -274 -168c0 -43 16 -76 49 -100c33 -25 98 -48 197 -70l63 -14c261 -56 361 -149 361 -332c0 -208 -175 -338 -463 -338c-120 0 -249 23 -393 70v190
c136 -71 268 -106 397 -106c173 0 270 62 270 170c0 50 -17 88 -50 115c-34 27 -108 52 -222 77l-64 15c-228 48 -323 142 -323 315c0 211 155 330 430 330c136 0 257 -20 358 -60z" />
    <glyph glyph-name="scedilla" unicode="&#x15f;" horiz-adv-x="1067" 
d="M967 309c0 -174 -123 -294 -332 -328c62 -74 93 -137 93 -196c0 -119 -81 -180 -238 -180c-61 0 -119 8 -176 24v131c45 -23 92 -32 155 -32c79 0 119 33 119 94c0 35 -22 83 -67 149h-17c-120 0 -249 23 -393 70v190c136 -71 268 -106 397 -106c173 0 270 62 270 170
c0 50 -17 88 -50 115c-34 27 -108 52 -222 77l-64 15c-228 48 -323 142 -323 315c0 211 155 330 430 330c136 0 257 -20 358 -60v-174c-104 53 -216 80 -336 80c-183 0 -274 -56 -274 -168c0 -43 16 -76 49 -100c33 -25 98 -48 197 -70l63 -14c261 -56 361 -149 361 -332z
" />
    <glyph glyph-name="germandbls" unicode="&#xdf;" horiz-adv-x="1290" 
d="M186 0v1137c0 267 166 419 457 419c277 0 426 -157 430 -456c-201 -11 -319 -91 -319 -219c0 -63 36 -114 123 -170l57 -37c221 -141 262 -215 262 -348c0 -229 -155 -355 -436 -355c-85 0 -176 17 -273 49v164c107 -40 198 -59 285 -59c155 0 236 65 236 186
c0 84 -25 126 -160 209l-92 55c-128 79 -183 164 -183 285c0 169 117 289 318 328c-11 137 -101 215 -252 215c-173 0 -266 -95 -266 -270v-1133h-187z" />
    <glyph glyph-name="t" unicode="t" horiz-adv-x="803" 
d="M190 1438h185v-318h379v-143h-379v-608c0 -183 37 -215 190 -215h189v-154h-189c-284 0 -375 89 -375 369v608h-135v143h135v318z" />
    <glyph glyph-name="u" unicode="u" horiz-adv-x="1298" 
d="M174 442v678h184v-671c0 -212 83 -318 248 -318c199 0 322 135 322 354v635h184v-1120h-184v172c-89 -136 -205 -201 -361 -201c-257 0 -393 163 -393 471z" />
    <glyph glyph-name="uacute" unicode="&#xfa;" horiz-adv-x="1298" 
d="M494 1262l280 376h199l-326 -376h-153zM174 442v678h184v-671c0 -212 83 -318 248 -318c199 0 322 135 322 354v635h184v-1120h-184v172c-89 -136 -205 -201 -361 -201c-257 0 -393 163 -393 471z" />
    <glyph glyph-name="ucircumflex" unicode="&#xfb;" horiz-adv-x="1298" 
d="M316 1262l245 376h148l245 -376h-139l-180 245l-180 -245h-139zM174 442v678h184v-671c0 -212 83 -318 248 -318c199 0 322 135 322 354v635h184v-1120h-184v172c-89 -136 -205 -201 -361 -201c-257 0 -393 163 -393 471z" />
    <glyph glyph-name="udieresis" unicode="&#xfc;" horiz-adv-x="1298" 
d="M338 1350v202h203v-202h-203zM729 1350v202h203v-202h-203zM174 442v678h184v-671c0 -212 83 -318 248 -318c199 0 322 135 322 354v635h184v-1120h-184v172c-89 -136 -205 -201 -361 -201c-257 0 -393 163 -393 471z" />
    <glyph glyph-name="ugrave" unicode="&#xf9;" horiz-adv-x="1298" 
d="M293 1638h197l282 -374h-153zM174 442v678h184v-671c0 -212 83 -318 248 -318c199 0 322 135 322 354v635h184v-1120h-184v172c-89 -136 -205 -201 -361 -201c-257 0 -393 163 -393 471z" />
    <glyph glyph-name="v" unicode="v" horiz-adv-x="1212" 
d="M481 0l-420 1120h195l350 -940l350 940h195l-420 -1120h-250z" />
    <glyph glyph-name="w" unicode="w" horiz-adv-x="1675" 
d="M379 0l-293 1120h184l230 -874l229 874h217l230 -874l229 874h184l-293 -1120h-217l-241 918l-242 -918h-217z" />
    <glyph glyph-name="x" unicode="x" horiz-adv-x="1212" 
d="M907 1120h217l-405 -545l426 -575h-217l-326 440l-326 -440h-217l435 586l-398 534h217l297 -399z" />
    <glyph glyph-name="y" unicode="y" horiz-adv-x="1212" 
d="M1151 1120l-492 -1224c-104 -267 -185 -322 -350 -322h-147v154h108c101 0 143 27 211 206l33 84l-453 1102h195l350 -876l350 876h195z" />
    <glyph glyph-name="yacute" unicode="&#xfd;" horiz-adv-x="1212" 
d="M465 1262l280 376h199l-326 -376h-153zM1151 1120l-492 -1224c-104 -267 -185 -322 -350 -322h-147v154h108c101 0 143 27 211 206l33 84l-453 1102h195l350 -876l350 876h195z" />
    <glyph glyph-name="ydieresis" unicode="&#xff;" horiz-adv-x="1212" 
d="M309 1350v202h203v-202h-203zM700 1350v202h203v-202h-203zM1151 1120l-492 -1224c-104 -267 -185 -322 -350 -322h-147v154h108c101 0 143 27 211 206l33 84l-453 1102h195l350 -876l350 876h195z" />
    <glyph glyph-name="z" unicode="z" horiz-adv-x="1075" 
d="M113 973v147h874v-168l-692 -805h692v-147h-899v168l692 805h-667z" />
    <glyph glyph-name="zcaron" unicode="&#x17e;" horiz-adv-x="1075" 
d="M613 1262h-148l-245 376h139l180 -245l180 245h139zM113 973v147h874v-168l-692 -805h692v-147h-899v168l692 805h-667z" />
    <glyph glyph-name="fi" unicode="&#xfb01;" horiz-adv-x="1290" 
d="M408 1120h690v-1120h-185v977h-505v-977h-185v977h-176v143h176v78c0 244 113 358 352 358h185v-153h-176c-132 0 -176 -45 -176 -184v-99zM913 1321v233h185v-233h-185z" />
    <glyph glyph-name="fl" unicode="&#xfb02;" horiz-adv-x="1290" 
d="M586 1556h512v-1556h-185v1403h-329c-132 0 -176 -45 -176 -184v-99h303v-143h-303v-977h-185v977h-176v143h176v78c0 249 111 358 363 358z" />
    <glyph glyph-name="ordfeminine" unicode="&#xaa;" horiz-adv-x="965" 
d="M825 1165v-448h-149v112c-59 -84 -157 -131 -281 -131c-171 0 -280 97 -280 248c0 180 128 273 379 273h182v4c0 121 -78 182 -234 182c-83 0 -175 -23 -266 -68v127c97 37 195 56 287 56c244 0 362 -116 362 -355zM676 1104h-127c-107 0 -182 -11 -224 -33
c-42 -23 -63 -60 -63 -113c0 -85 71 -141 180 -141c139 0 234 106 234 258v29zM139 469v123h688v-123h-688z" />
    <glyph glyph-name="ordmasculine" unicode="&#xba;" horiz-adv-x="965" 
d="M483 1520c239 0 385 -157 385 -412s-146 -410 -385 -410s-387 157 -387 410c0 255 148 412 387 412zM483 1405c-140 0 -231 -116 -231 -297c0 -177 92 -293 231 -293c140 0 230 116 230 293c0 183 -89 297 -230 297zM139 469v123h688v-123h-688z" />
    <glyph glyph-name="uni03A9" unicode="&#x3a9;" horiz-adv-x="1565" 
d="M1167 178h320v-178h-600v178c236 129 375 362 375 631c0 320 -192 530 -480 530s-481 -211 -481 -530c0 -269 140 -502 377 -631v-178h-600v178h319c-211 185 -303 376 -303 621c0 424 281 712 688 712c404 0 688 -290 688 -702c0 -259 -88 -443 -303 -631z" />
    <glyph glyph-name="pi" unicode="&#x3c0;" horiz-adv-x="1206" 
d="M1194 1071l-35 -158h-182l-105 -487c-10 -49 -17 -89 -22 -120s-8 -53 -8 -68c0 -77 29 -107 102 -107c23 0 51 3 100 10l-30 -141c-40 -11 -76 -16 -111 -16c-157 0 -239 69 -239 202c0 31 4 70 11 118s21 126 44 233l80 376h-326l-194 -913h-181l195 913h-41
c-72 0 -111 -41 -123 -133h-160c37 221 116 291 336 291h889z" />
    <glyph glyph-name="zero" unicode="0" horiz-adv-x="1303" 
d="M651 1520c335 0 516 -271 516 -775c0 -503 -181 -774 -516 -774s-516 271 -516 774c0 504 181 775 516 775zM651 1360c-208 0 -313 -204 -313 -615c0 -409 105 -614 313 -614c209 0 314 205 314 614c0 411 -105 615 -314 615z" />
    <glyph glyph-name="one" unicode="1" horiz-adv-x="1303" 
d="M254 0v170h330v1139l-359 -72v184l357 72h202v-1323h330v-170h-860z" />
    <glyph glyph-name="two" unicode="2" horiz-adv-x="1303" 
d="M393 170h705v-170h-948v170c77 79 181 186 314 320c264 267 333 342 385 443c25 50 38 99 38 148c0 159 -122 269 -301 269c-127 0 -266 -44 -426 -133v204c163 65 305 99 422 99c309 0 508 -167 508 -426c0 -123 -39 -220 -160 -369c-17 -19 -70 -75 -159 -167
c-89 -93 -215 -222 -378 -388z" />
    <glyph glyph-name="three" unicode="3" horiz-adv-x="1303" 
d="M831 805c193 -41 308 -179 308 -371c0 -295 -211 -463 -584 -463c-125 0 -258 25 -399 74v195c112 -65 248 -99 393 -99c253 0 389 102 389 293c0 176 -130 281 -350 281h-174v166h182c199 0 307 82 307 231c0 153 -112 238 -315 238c-111 0 -235 -23 -387 -74v180
c153 43 286 64 405 64c307 0 498 -150 498 -387c0 -165 -98 -284 -273 -328z" />
    <glyph glyph-name="four" unicode="4" horiz-adv-x="1303" 
d="M100 547l621 946h254v-973h213v-168h-213v-352h-201v352h-674v195zM774 520v797l-510 -797h510z" />
    <glyph glyph-name="five" unicode="5" horiz-adv-x="1303" 
d="M221 743v750h793v-170h-608v-366c59 20 117 30 176 30c333 0 542 -196 542 -508c0 -321 -209 -508 -573 -508c-125 0 -254 21 -393 64v203c120 -65 246 -97 389 -97c231 0 375 130 375 338s-144 338 -375 338c-108 0 -214 -23 -326 -74z" />
    <glyph glyph-name="six" unicode="6" horiz-adv-x="1303" 
d="M1077 1460v-184c-101 48 -206 74 -307 74c-267 0 -406 -179 -426 -543c79 116 201 180 344 180c300 0 486 -195 486 -508c0 -307 -197 -508 -498 -508c-345 0 -533 271 -533 774c0 472 242 775 619 775c101 0 203 -20 315 -60zM676 827c-181 0 -295 -132 -295 -348
c0 -215 114 -348 295 -348s295 133 295 348c0 216 -114 348 -295 348z" />
    <glyph glyph-name="seven" unicode="7" horiz-adv-x="1303" 
d="M168 1323v170h960v-86l-542 -1407h-211l510 1323h-717z" />
    <glyph glyph-name="eight" unicode="8" horiz-adv-x="1303" 
d="M449 795c-173 43 -275 167 -275 338c0 239 181 387 477 387c297 0 477 -148 477 -387c0 -171 -102 -295 -274 -338c195 -45 309 -184 309 -375c0 -289 -183 -449 -512 -449s-512 160 -512 449c0 191 115 330 310 375zM375 1114c0 -155 101 -246 276 -246
c173 0 277 91 277 246s-104 246 -277 246c-175 0 -276 -91 -276 -246zM651 709c-192 0 -309 -109 -309 -289s117 -289 309 -289s310 110 310 289c0 180 -117 289 -310 289z" />
    <glyph glyph-name="nine" unicode="9" horiz-adv-x="1303" 
d="M225 31v184c101 -48 207 -74 307 -74c267 0 406 178 426 543c-77 -115 -200 -178 -344 -178c-299 0 -485 193 -485 506c0 307 197 508 498 508c345 0 532 -271 532 -775c0 -471 -241 -774 -618 -774c-101 0 -204 20 -316 60zM627 664c181 0 295 132 295 348
c0 215 -114 348 -295 348s-295 -133 -295 -348c0 -216 114 -348 295 -348z" />
    <glyph glyph-name="uni00B9" unicode="&#xb9;" horiz-adv-x="821" 
d="M156 668v110h204v611l-223 -41v116l230 39h137v-725h205v-110h-553z" />
    <glyph glyph-name="uni00B2" unicode="&#xb2;" horiz-adv-x="821" 
d="M271 114h424v-114h-598v110c23 21 55 50 97 87c230 202 344 336 344 399c0 88 -76 147 -189 147c-69 0 -150 -23 -246 -70v123c103 37 191 56 267 56c193 0 319 -96 319 -240c0 -93 -111 -233 -331 -423z" />
    <glyph glyph-name="uni00B3" unicode="&#xb3;" horiz-adv-x="821" 
d="M524 1120c123 -24 193 -100 193 -209c0 -165 -131 -258 -367 -258c-76 0 -159 14 -252 41v121c69 -36 149 -53 238 -53c145 0 229 56 229 149c0 99 -75 150 -219 150h-86v108h94c125 0 191 43 191 123c0 77 -68 119 -195 119c-53 0 -115 -10 -223 -41v115
c97 23 183 35 256 35c192 0 313 -85 313 -217c0 -92 -63 -159 -172 -183z" />
    <glyph glyph-name="fraction" unicode="&#x2044;" horiz-adv-x="342" 
d="M-375 -29l932 1549h160l-932 -1549h-160z" />
    <glyph glyph-name="onehalf" unicode="&#xbd;" horiz-adv-x="1984" 
d="M446 -29l932 1549h160l-932 -1549h-160zM156 668v110h204v611l-223 -41v116l230 39h137v-725h205v-110h-553zM1434 114h424v-114h-598v110c23 21 55 50 97 87c230 202 344 336 344 399c0 88 -76 147 -189 147c-69 0 -150 -23 -246 -70v123c103 37 191 56 267 56
c193 0 319 -96 319 -240c0 -93 -111 -233 -331 -423z" />
    <glyph glyph-name="onequarter" unicode="&#xbc;" horiz-adv-x="1985" 
d="M446 -29l932 1549h160l-932 -1549h-160zM156 668v110h204v611l-223 -41v116l230 39h137v-725h205v-110h-553zM1226 307l392 528h166v-540h135v-109h-135v-186h-144v186h-414v121zM1640 295v419l-309 -419h309z" />
    <glyph glyph-name="threequarters" unicode="&#xbe;" horiz-adv-x="1985" 
d="M524 1120c123 -24 193 -100 193 -209c0 -165 -131 -258 -367 -258c-76 0 -159 14 -252 41v121c69 -36 149 -53 238 -53c145 0 229 56 229 149c0 99 -75 150 -219 150h-86v108h94c125 0 191 43 191 123c0 77 -68 119 -195 119c-53 0 -115 -10 -223 -41v115
c97 23 183 35 256 35c192 0 313 -85 313 -217c0 -92 -63 -159 -172 -183zM446 -29l932 1549h160l-932 -1549h-160zM1226 307l392 528h166v-540h135v-109h-135v-186h-144v186h-414v121zM1640 295v419l-309 -419h309z" />
    <glyph glyph-name="asterisk" unicode="*" 
d="M905 1346l58 -99l-359 -194l359 -195l-58 -98l-336 203v-377h-114v377l-336 -203l-58 98l359 195l-359 194l58 99l336 -203v377h114v-377z" />
    <glyph glyph-name="backslash" unicode="\" horiz-adv-x="690" 
d="M0 1493h170l520 -1683h-170z" />
    <glyph glyph-name="periodcentered" unicode="&#xb7;" horiz-adv-x="651" 
d="M219 584v254h211v-254h-211z" />
    <glyph glyph-name="bullet" unicode="&#x2022;" horiz-adv-x="1208" 
d="M307 762c0 165 131 295 299 295c165 0 295 -130 295 -295c0 -167 -130 -297 -297 -297s-297 130 -297 297z" />
    <glyph glyph-name="colon" unicode=":" horiz-adv-x="690" 
d="M240 805v254h211v-254h-211zM240 390v254h211v-254h-211zM240 0v254h211v-254h-211z" />
    <glyph glyph-name="comma" unicode="," horiz-adv-x="651" 
d="M240 82v172h211v-172l-164 -320h-129z" />
    <glyph glyph-name="ellipsis" unicode="&#x2026;" horiz-adv-x="2048" 
d="M236 0v254h213v-254h-213zM918 0v254h212v-254h-212zM1599 0v254h213v-254h-213z" />
    <glyph glyph-name="exclam" unicode="!" horiz-adv-x="821" 
d="M309 838v655h203v-655l-20 -357h-162zM309 0v254h203v-254h-203z" />
    <glyph glyph-name="exclamdown" unicode="&#xa1;" horiz-adv-x="821" 
d="M512 1493v-254h-203v254h203zM512 655v-655h-203v655l21 357h162z" />
    <glyph glyph-name="numbersign" unicode="#" horiz-adv-x="1716" 
d="M735 1470h162l-104 -415h292l105 415h160l-103 -415h312v-154h-351l-82 -334h318v-153h-357l-104 -414h-160l103 414h-293l-103 -414h-161l104 414h-315v153h352l84 334h-322v154h361zM965 567l82 334h-291l-84 -334h293z" />
    <glyph glyph-name="period" unicode="." horiz-adv-x="651" 
d="M219 0v254h211v-254h-211z" />
    <glyph glyph-name="question" unicode="?" horiz-adv-x="1087" 
d="M588 524v-123h-191v154c0 135 26 202 146 317l90 89c76 71 108 131 108 196c0 119 -95 199 -239 199c-105 0 -226 -48 -355 -137v188c125 76 253 113 390 113c245 0 407 -141 407 -353c0 -101 -42 -184 -162 -299l-88 -86c-63 -63 -83 -92 -94 -125
c-8 -28 -12 -64 -12 -133zM391 0v254h203v-254h-203z" />
    <glyph glyph-name="questiondown" unicode="&#xbf;" horiz-adv-x="1087" 
d="M696 1493v-254h-202v254h202zM500 969v123h190v-156c0 -135 -25 -202 -145 -318l-90 -88c-77 -71 -109 -131 -109 -196c0 -119 95 -199 240 -199c104 0 226 48 354 137v-188c-125 -76 -252 -113 -389 -113c-245 0 -408 141 -408 353c0 101 43 184 162 299l88 86
c64 63 83 92 94 125c9 28 13 63 13 135z" />
    <glyph glyph-name="quotedbl" unicode="&#x22;" horiz-adv-x="942" 
d="M197 1493h170v-555h-170v555zM575 1493h170v-555h-170v555z" />
    <glyph glyph-name="quotesingle" unicode="'" horiz-adv-x="563" 
d="M197 1493h170v-555h-170v555z" />
    <glyph glyph-name="semicolon" unicode=";" horiz-adv-x="690" 
d="M240 805v254h211v-254h-211zM240 82v172h211v-172l-164 -320h-129z" />
    <glyph glyph-name="slash" unicode="/" horiz-adv-x="690" 
d="M0 -190l520 1683h170l-520 -1683h-170z" />
    <glyph glyph-name="underscore" unicode="_" 
d="M-20 -340h1064v-143h-1064v143z" />
    <glyph glyph-name="periodcentered.257" horiz-adv-x="651" 
d="M219 584v254h211v-254h-211z" />
    <glyph glyph-name="braceleft" unicode="{" horiz-adv-x="1303" 
d="M979 -190h68v-144h-62c-332 0 -418 74 -418 369v239c0 201 -61 267 -250 267h-61v143h61c191 0 250 65 250 264v240c0 295 86 368 418 368h62v-143h-68c-188 0 -227 -41 -227 -229v-248c0 -209 -54 -291 -201 -324c148 -36 201 -117 201 -325v-248
c0 -188 39 -229 227 -229z" />
    <glyph glyph-name="braceright" unicode="}" horiz-adv-x="1303" 
d="M256 -334v144h70c187 0 225 38 225 229v248c0 208 53 289 201 325c-148 33 -201 115 -201 324v248c0 189 -38 229 -225 229h-70v143h63c332 0 416 -73 416 -368v-240c0 -199 61 -264 250 -264h62v-143h-62c-189 0 -250 -66 -250 -267v-239c0 -295 -84 -369 -416 -369h-63
z" />
    <glyph glyph-name="bracketleft" unicode="[" horiz-adv-x="799" 
d="M176 -270v1826h424v-143h-240v-1540h240v-143h-424z" />
    <glyph glyph-name="bracketright" unicode="]" horiz-adv-x="799" 
d="M199 1556h424v-1826h-424v143h239v1540h-239v143z" />
    <glyph glyph-name="parenleft" unicode="(" horiz-adv-x="799" 
d="M475 1554h160c-179 -307 -264 -603 -264 -911s87 -608 264 -913h-160c-200 313 -299 614 -299 913c0 297 98 596 299 911z" />
    <glyph glyph-name="parenright" unicode=")" horiz-adv-x="799" 
d="M164 1554h160c200 -315 299 -614 299 -911c0 -299 -99 -600 -299 -913h-160c177 305 264 605 264 913s-87 604 -264 911z" />
    <glyph glyph-name="emdash" unicode="&#x2014;" horiz-adv-x="2048" 
d="M0 489v144h2048v-144h-2048z" />
    <glyph glyph-name="endash" unicode="&#x2013;" 
d="M0 489v144h1024v-144h-1024z" />
    <glyph glyph-name="hyphen" unicode="-" horiz-adv-x="739" 
d="M100 479v164h539v-164h-539z" />
    <glyph glyph-name="uni00AD" unicode="&#xad;" horiz-adv-x="739" 
d="M100 479v164h539v-164h-539z" />
    <glyph glyph-name="guillemotleft" unicode="&#xab;" horiz-adv-x="1253" 
d="M158 641l469 418v-191l-301 -268l301 -268v-191l-469 418v82zM592 641l469 418v-191l-301 -268l301 -268v-191l-469 418v82z" />
    <glyph glyph-name="guillemotright" unicode="&#xbb;" horiz-adv-x="1253" 
d="M193 868v191l469 -418v-82l-469 -418v191l301 268zM627 868v191l469 -418v-82l-469 -418v191l301 268z" />
    <glyph glyph-name="guilsinglleft" unicode="&#x2039;" horiz-adv-x="819" 
d="M158 641l469 418v-191l-301 -268l301 -268v-191l-469 418v82z" />
    <glyph glyph-name="guilsinglright" unicode="&#x203a;" horiz-adv-x="819" 
d="M193 868v191l469 -418v-82l-469 -418v191l301 268z" />
    <glyph glyph-name="quotedblbase" unicode="&#x201e;" horiz-adv-x="1061" 
d="M256 82v172h211v-172l-164 -320h-129zM666 82v172h211v-172l-164 -320h-129z" />
    <glyph glyph-name="quotedblleft" unicode="&#x201c;" horiz-adv-x="1061" 
d="M385 1174v-173h-211v173l164 319h129zM795 1174v-173h-211v173l164 319h129z" />
    <glyph glyph-name="quotedblright" unicode="&#x201d;" horiz-adv-x="1061" 
d="M256 1321v172h211v-172l-164 -320h-129zM666 1321v172h211v-172l-164 -320h-129z" />
    <glyph glyph-name="quoteleft" unicode="&#x2018;" horiz-adv-x="651" 
d="M385 1174v-173h-211v173l164 319h129z" />
    <glyph glyph-name="quoteright" unicode="&#x2019;" horiz-adv-x="651" 
d="M260 1341v152h211v-152l-164 -319h-129z" />
    <glyph glyph-name="quotesinglbase" unicode="&#x201a;" horiz-adv-x="651" 
d="M256 82v172h211v-172l-164 -320h-129z" />
    <glyph glyph-name="space" unicode=" " horiz-adv-x="651" 
 />
    <glyph glyph-name="uni00A0" unicode="&#xa0;" horiz-adv-x="1303" 
 />
    <glyph glyph-name="CR" unicode="&#xd;" horiz-adv-x="651" 
 />
    <glyph glyph-name="cent" unicode="&#xa2;" horiz-adv-x="1303" 
d="M1059 1077v-172c-99 55 -187 82 -278 86l-1 -864c93 7 183 34 279 86v-170c-87 -40 -176 -63 -279 -72v-284h-102v288c-321 27 -506 241 -506 584c0 344 185 557 506 586v287h102l1 -287c97 -5 187 -27 278 -68zM678 131v856c-196 -24 -311 -183 -311 -428
c0 -247 115 -405 311 -428z" />
    <glyph glyph-name="currency" unicode="&#xa4;" horiz-adv-x="1303" 
d="M891 993l207 209l114 -115l-206 -206c49 -79 73 -157 73 -240c0 -84 -25 -159 -78 -235l209 -207l-114 -113l-207 207c-79 -53 -155 -78 -236 -78c-77 0 -158 25 -239 74l-207 -207l-113 115l207 206c-49 83 -74 161 -74 238c0 85 25 161 76 236l-207 206l115 115
l207 -207c73 52 150 76 235 76c80 0 157 -23 238 -74zM922 643c0 149 -117 266 -269 266c-149 0 -270 -117 -270 -266c0 -152 119 -270 270 -270s269 119 269 270z" />
    <glyph glyph-name="dollar" unicode="$" horiz-adv-x="1303" 
d="M692 2v-303h-100l-1 301c-140 3 -280 32 -421 92v180c136 -85 274 -129 422 -130v456c-295 48 -422 158 -422 358c0 217 150 346 422 365v235h100v-232c124 -5 239 -26 350 -62v-175c-111 56 -227 87 -350 92v-427c303 -47 441 -163 441 -371c0 -225 -156 -359 -441 -379
zM592 770v410c-155 -17 -238 -90 -238 -207c0 -115 71 -175 238 -203zM692 578v-433c169 23 256 97 256 217c0 117 -79 184 -256 216z" />
    <glyph glyph-name="Euro" unicode="&#x20ac;" horiz-adv-x="1303" 
d="M1167 1378v-213c-121 140 -226 195 -362 195c-209 0 -348 -138 -391 -387h577l-55 -123h-538c-3 -32 -3 -58 -3 -105c0 -43 0 -70 3 -102h446l-56 -123h-374c43 -249 182 -389 391 -389c136 0 241 55 362 195v-211c-119 -96 -242 -144 -370 -144
c-316 0 -533 204 -586 549h-211l55 123h139v47c-1 15 -1 34 -1 55c0 23 0 43 1 59v46h-194l55 123h156c53 343 271 547 586 547c131 0 254 -47 370 -142z" />
    <glyph glyph-name="florin" unicode="&#x192;" horiz-adv-x="1303" 
d="M1282 1520v-164c-51 39 -103 57 -162 57c-128 0 -202 -78 -235 -254l-60 -311h287v-143h-317l-127 -635c-77 -380 -184 -496 -432 -496c-77 0 -142 14 -205 43v166c69 -44 133 -66 196 -66c129 0 195 82 240 303l137 685h-248v143h279l63 330c48 244 184 378 385 378
c71 0 138 -12 199 -36z" />
    <glyph glyph-name="sterling" unicode="&#xa3;" horiz-adv-x="1303" 
d="M1102 1460v-182c-101 55 -192 82 -273 82c-197 0 -264 -84 -264 -367v-215h391v-143h-391v-465h557v-170h-993v170h236v465h-199v143h199v238c0 348 137 504 446 504c81 0 186 -21 291 -60z" />
    <glyph glyph-name="yen" unicode="&#xa5;" horiz-adv-x="1303" 
d="M1165 578v-123h-413v-455h-201v455h-416v123h416v51l-84 155h-332v123h264l-317 586h190l379 -700l377 700h191l-318 -586h264v-123h-331l-84 -155v-51h415z" />
    <glyph glyph-name="plus" unicode="+" horiz-adv-x="1716" 
d="M774 1284h168v-557h557v-170h-557v-557h-168v557h-557v170h557v557z" />
    <glyph glyph-name="minus" unicode="&#x2212;" horiz-adv-x="1716" 
d="M217 557v170h1282v-170h-1282z" />
    <glyph glyph-name="multiply" unicode="&#xd7;" horiz-adv-x="1716" 
d="M1317 1221l119 -121l-457 -459l457 -457l-119 -121l-459 459l-459 -459l-118 121l456 457l-456 459l118 121l459 -459z" />
    <glyph glyph-name="divide" unicode="&#xf7;" horiz-adv-x="1716" 
d="M735 889v246h246v-246h-246zM217 557v170h1282v-170h-1282zM735 150v245h246v-245h-246z" />
    <glyph glyph-name="equal" unicode="=" horiz-adv-x="1716" 
d="M217 762v168h1282v-168h-1282zM217 352v170h1282v-170h-1282z" />
    <glyph glyph-name="notequal" unicode="&#x2260;" horiz-adv-x="1716" 
d="M217 762v168h772l256 315l125 -102l-174 -213h303v-168h-440l-195 -240h635v-170h-774l-258 -313l-125 102l174 211h-299v170h438l195 240h-633z" />
    <glyph glyph-name="greater" unicode="&#x3e;" horiz-adv-x="1716" 
d="M1247 641l-1030 367v182l1282 -465v-166l-1282 -465v182z" />
    <glyph glyph-name="less" unicode="&#x3c;" horiz-adv-x="1716" 
d="M1499 1190v-182l-1032 -367l1032 -365v-182l-1282 465v166z" />
    <glyph glyph-name="greaterequal" unicode="&#x2265;" horiz-adv-x="1716" 
d="M1178 739l-961 277v176l1282 -367v-170l-1282 -368v178zM217 170h1282v-170h-1282v170z" />
    <glyph glyph-name="lessequal" unicode="&#x2264;" horiz-adv-x="1716" 
d="M1499 1192v-176l-960 -277l960 -274v-178l-1282 368v170zM217 0v170h1282v-170h-1282z" />
    <glyph glyph-name="plusminus" unicode="&#xb1;" horiz-adv-x="1716" 
d="M774 1284h168v-387h557v-170h-557v-387h-168v387h-557v170h557v387zM217 0v170h1282v-170h-1282z" />
    <glyph glyph-name="approxequal" unicode="&#x2248;" horiz-adv-x="1716" 
d="M1499 1012v-178c-140 -105 -252 -148 -381 -148c-73 0 -159 20 -256 59l-17 7c-4 1 -11 4 -21 8c-103 41 -186 61 -249 61c-117 0 -227 -48 -358 -159v178c140 104 252 147 381 147c73 0 159 -20 257 -59l15 -6c5 -2 12 -5 22 -9c103 -41 186 -61 249 -61
c115 0 221 47 358 160zM1499 623v-179c-140 -104 -252 -147 -381 -147c-73 0 -159 20 -256 59l-17 7c-4 1 -11 4 -21 8c-103 41 -186 61 -249 61c-117 0 -227 -48 -358 -160v179c140 104 252 147 381 147c73 0 159 -20 257 -59l16 -7c4 -1 11 -4 21 -8
c103 -41 186 -61 249 -61c115 0 221 47 358 160z" />
    <glyph glyph-name="asciitilde" unicode="~" horiz-adv-x="1716" 
d="M1499 817v-178c-140 -105 -252 -147 -381 -147c-73 0 -159 20 -256 59c-7 3 -13 5 -16 6c-5 2 -12 5 -22 8c-103 41 -186 62 -249 62c-117 0 -227 -49 -358 -160v178c140 105 252 148 381 148c73 0 159 -20 257 -60l37 -14c103 -41 186 -62 249 -62c115 0 221 48 358 160
z" />
    <glyph glyph-name="logicalnot" unicode="&#xac;" horiz-adv-x="1716" 
d="M217 692v170h1282v-575h-168v405h-1114z" />
    <glyph glyph-name="infinity" unicode="&#x221e;" horiz-adv-x="1706" 
d="M864 483c-93 -180 -196 -262 -321 -262c-181 0 -322 168 -322 389c0 233 122 391 301 391c127 0 224 -80 320 -264c91 184 194 269 323 269c179 0 322 -169 322 -392c0 -233 -122 -389 -301 -389c-125 0 -217 73 -322 258zM915 559c65 -117 155 -178 267 -178
c135 0 229 100 229 240c0 135 -88 235 -207 235c-109 0 -190 -81 -289 -297zM793 666c-65 117 -154 176 -267 176c-136 0 -229 -97 -229 -238c0 -135 88 -235 207 -235c109 0 192 82 289 297z" />
    <glyph glyph-name="integral" unicode="&#x222b;" horiz-adv-x="1067" 
d="M311 -262c71 0 111 229 120 688c1 72 2 127 3 165c8 343 44 589 107 737s162 222 297 222c107 0 180 -62 180 -149c0 -72 -46 -117 -119 -117c-56 0 -94 26 -110 73c-4 10 -7 27 -10 51s-10 36 -21 36c-71 0 -112 -206 -121 -619c-3 -129 -5 -230 -8 -303
c-11 -319 -48 -548 -111 -686s-160 -207 -291 -207c-105 0 -180 61 -180 148c0 75 48 119 129 119c44 0 76 -20 96 -57c7 -12 12 -32 15 -59c3 -28 11 -42 24 -42z" />
    <glyph glyph-name="uni2206" unicode="&#x2206;" horiz-adv-x="1370" 
d="M-6 0l579 1473h224l579 -1473h-1382zM1102 178l-418 1084l-418 -1084h836z" />
    <glyph glyph-name="product" unicode="&#x220f;" horiz-adv-x="1550" 
d="M156 -393v1866h1237v-1866h-240v1661h-758v-1661h-239z" />
    <glyph glyph-name="summation" unicode="&#x2211;" horiz-adv-x="1380" 
d="M55 1296v177h1258v-193h-959l672 -717l-694 -764h1007v-192h-1314v149l725 801z" />
    <glyph glyph-name="radical" unicode="&#x221a;" horiz-adv-x="1305" 
d="M600 266l516 1395h189v-96h-115l-594 -1606h-66l-319 883l-125 -45l-25 80l283 98z" />
    <glyph glyph-name="uni00B5" unicode="&#xb5;" horiz-adv-x="1303" 
d="M358 -426h-184v1546h184v-696c0 -193 93 -293 273 -293c197 0 297 112 297 336v653h184v-862c0 -80 23 -117 72 -117c6 0 14 2 25 6c11 3 25 9 44 17v-148c-55 -31 -102 -45 -149 -45c-92 0 -146 51 -166 158c-67 -105 -162 -158 -293 -158c-136 0 -231 52 -287 156v-553
z" />
    <glyph glyph-name="partialdiff" unicode="&#x2202;" horiz-adv-x="1059" 
d="M756 621c20 116 30 225 30 325c0 172 -49 260 -145 260c-37 0 -79 -19 -127 -58s-84 -58 -108 -58c-48 0 -84 34 -84 75c0 83 110 160 245 160c240 0 394 -222 394 -573c0 -447 -218 -777 -502 -777c-203 0 -355 162 -355 379c0 264 167 455 383 455
c135 0 218 -59 269 -188zM707 494c0 155 -61 241 -166 241c-145 0 -250 -189 -250 -465c0 -155 59 -239 166 -239c145 0 250 192 250 463z" />
    <glyph glyph-name="percent" unicode="%" horiz-adv-x="1946" 
d="M457 1520c211 0 346 -157 346 -406c0 -252 -134 -407 -346 -407s-344 156 -344 407c0 248 133 406 344 406zM426 -29l934 1549h160l-934 -1549h-160zM457 1393c-115 0 -185 -106 -185 -279c0 -176 69 -280 185 -280s186 104 186 280c0 172 -71 279 -186 279zM1489 784
c211 0 344 -158 344 -407s-135 -406 -344 -406c-213 0 -346 157 -346 406c0 251 134 407 346 407zM1489 657c-116 0 -186 -104 -186 -280c0 -173 70 -279 186 -279c113 0 184 106 184 279c0 175 -71 280 -184 280z" />
    <glyph glyph-name="perthousand" unicode="&#x2030;" horiz-adv-x="2748" 
d="M457 1520c211 0 346 -157 346 -406c0 -252 -134 -407 -346 -407s-344 156 -344 407c0 248 133 406 344 406zM426 -29l934 1549h160l-934 -1549h-160zM457 1393c-115 0 -185 -106 -185 -279c0 -176 69 -280 185 -280s186 104 186 280c0 172 -71 279 -186 279zM1489 784
c211 0 344 -158 344 -407s-135 -406 -344 -406c-213 0 -346 157 -346 406c0 251 134 407 346 407zM2292 784c211 0 344 -158 344 -407s-135 -406 -344 -406c-213 0 -346 157 -346 406c0 251 134 407 346 407zM1489 657c-116 0 -186 -104 -186 -280c0 -173 70 -279 186 -279
c113 0 184 106 184 279c0 175 -71 280 -184 280zM2292 657c-116 0 -187 -104 -187 -280c0 -173 71 -279 187 -279c113 0 184 106 184 279c0 175 -71 280 -184 280z" />
    <glyph glyph-name="lozenge" unicode="&#x25ca;" horiz-adv-x="1012" 
d="M6 592l500 1061l500 -1061l-500 -1069zM891 592l-385 817l-385 -817l385 -825z" />
    <glyph glyph-name="at" unicode="@" horiz-adv-x="2048" 
d="M1307 84v154c-80 -103 -181 -150 -318 -150c-229 0 -387 182 -387 449s159 450 387 450c137 0 239 -50 318 -151v131h143v-736c195 29 311 186 311 422c0 143 -42 268 -127 375c-139 175 -344 270 -579 270c-164 0 -317 -44 -445 -129c-209 -136 -334 -369 -334 -626
c0 -212 79 -402 224 -543c140 -139 329 -213 538 -213c172 0 343 60 482 168l90 -111c-167 -129 -369 -200 -572 -200c-247 0 -470 89 -641 256s-262 391 -262 643c0 243 94 470 262 637c172 169 404 262 656 262c283 0 534 -121 698 -334c100 -131 154 -287 154 -451
c0 -351 -225 -565 -598 -573zM762 537c0 -191 101 -306 266 -306c164 0 264 117 264 306c0 187 -103 305 -266 305c-161 0 -264 -117 -264 -305z" />
    <glyph glyph-name="ampersand" unicode="&#x26;" horiz-adv-x="1597" 
d="M639 915l508 -520c79 119 123 254 131 406h186c-16 -176 -85 -348 -209 -516l279 -285h-252l-143 147c-139 -119 -288 -176 -463 -176c-321 0 -547 203 -547 490c0 171 89 320 268 452c-64 84 -98 168 -98 248c0 216 161 359 406 359c111 0 220 -24 333 -72v-182
c-116 63 -222 96 -313 96c-140 0 -236 -82 -236 -199c0 -34 10 -68 30 -102c19 -35 59 -83 120 -146zM1028 260l-530 543c-121 -108 -176 -213 -176 -330c0 -195 159 -340 372 -340c127 0 237 42 334 127z" />
    <glyph glyph-name="paragraph" unicode="&#xb6;" horiz-adv-x="1303" 
d="M633 1493h448v-1690h-141v1567h-190v-1567h-142v846c-287 23 -450 177 -450 422c0 253 188 422 475 422z" />
    <glyph glyph-name="section" unicode="&#xa7;" 
d="M829 1462v-164c-111 52 -207 78 -282 78c-129 0 -205 -56 -205 -151c0 -60 69 -128 206 -205l40 -23c141 -79 233 -145 277 -196c43 -51 65 -111 65 -178c0 -120 -61 -212 -185 -283c83 -69 119 -140 119 -225c0 -189 -146 -310 -377 -310c-97 0 -198 19 -315 58v164
c116 -52 216 -78 293 -78c136 0 215 59 215 160c0 68 -74 143 -221 225l-25 14c-143 80 -235 146 -278 197s-64 110 -64 178c0 121 63 218 184 283c-79 59 -118 133 -118 225c0 173 145 289 366 289c97 0 200 -19 305 -58zM379 936c-84 -61 -125 -121 -125 -182
c0 -51 23 -98 70 -142c46 -45 152 -112 319 -202c84 60 125 121 125 182c0 50 -24 98 -71 143c-48 45 -154 112 -318 201z" />
    <glyph glyph-name="copyright" unicode="&#xa9;" horiz-adv-x="2048" 
d="M1024 1485c203 0 379 -74 524 -219s217 -320 217 -525c0 -203 -72 -377 -217 -522s-321 -219 -524 -219s-379 74 -524 219s-217 319 -217 522c0 205 72 380 217 525s321 219 524 219zM1024 1382c-175 0 -326 -63 -451 -188s-190 -280 -190 -453c0 -172 65 -325 190 -450
s276 -189 451 -189c176 0 328 64 453 189c124 124 186 275 186 450c0 177 -63 329 -186 453c-125 125 -277 188 -453 188zM1323 1137v-129c-88 44 -174 65 -262 65c-199 0 -316 -123 -316 -332c0 -212 119 -333 326 -333c85 0 164 20 252 65v-127c-89 -39 -181 -57 -274 -57
c-288 0 -467 175 -467 452c0 279 179 451 467 451c97 0 187 -19 274 -55z" />
    <glyph glyph-name="registered" unicode="&#xae;" horiz-adv-x="2048" 
d="M1024 1485c203 0 379 -74 524 -219s217 -320 217 -525c0 -203 -72 -377 -217 -522s-321 -219 -524 -219s-379 74 -524 219s-217 319 -217 522c0 205 72 380 217 525s321 219 524 219zM1024 1382c-175 0 -326 -63 -451 -188s-190 -280 -190 -453c0 -172 65 -325 190 -450
s276 -189 451 -189c176 0 328 64 453 189c124 124 186 275 186 450c0 177 -63 329 -186 453c-125 125 -277 188 -453 188zM719 1174h285c235 0 350 -79 350 -240c0 -115 -73 -192 -201 -215c16 -5 35 -21 58 -46c22 -26 48 -63 79 -112l137 -223h-172l-129 209
c-79 128 -114 147 -186 147h-66v-356h-155v836zM997 1071h-123v-276h123c147 0 197 37 197 137c0 101 -52 139 -197 139z" />
    <glyph glyph-name="trademark" unicode="&#x2122;" horiz-adv-x="2048" 
d="M295 1493h518v-94h-203v-484h-114v484h-201v94zM926 1493h172l174 -256l164 256h170v-578h-113v484l-195 -303h-55l-203 303v-484h-114v578z" />
    <glyph glyph-name="degree" unicode="&#xb0;" 
d="M512 1520c85 0 168 -34 225 -95c61 -60 92 -137 92 -225c0 -176 -140 -315 -319 -315c-180 0 -315 135 -315 315c0 179 140 320 317 320zM512 1391c-107 0 -190 -84 -190 -191c0 -105 83 -188 190 -188s190 83 190 188s-85 191 -190 191z" />
    <glyph glyph-name="bar" unicode="|" horiz-adv-x="690" 
d="M260 1565h170v-2048h-170v2048z" />
    <glyph glyph-name="brokenbar" unicode="&#xa6;" horiz-adv-x="690" 
d="M260 1432h170v-758h-170v758zM260 408h170v-758h-170v758z" />
    <glyph glyph-name="dagger" unicode="&#x2020;" 
d="M424 1073v420h176v-420h367v-153h-367v-1117h-176v1117h-367v153h367z" />
    <glyph glyph-name="daggerdbl" unicode="&#x2021;" 
d="M967 377v-154h-367v-420h-176v420h-367v154h367v543h-367v153h367v420h176v-420h367v-153h-367v-543h367z" />
    <glyph glyph-name="asciicircum" unicode="^" horiz-adv-x="1716" 
d="M760 1493h196l543 -557h-201l-440 395l-440 -395h-201z" />
    <glyph glyph-name="acute" unicode="&#xb4;" 
d="M371 1262l280 376h199l-326 -376h-153z" />
    <glyph glyph-name="breve" unicode="&#x2d8;" 
d="M199 1608h118c15 -100 79 -150 195 -150c115 0 178 49 195 150h118c-13 -191 -120 -287 -313 -287s-300 96 -313 287z" />
    <glyph glyph-name="caron" unicode="&#x2c7;" 
d="M586 1262h-148l-245 376h139l180 -245l180 245h139z" />
    <glyph glyph-name="cedilla" unicode="&#xb8;" 
d="M477 0h119c73 -83 109 -151 109 -215c0 -119 -81 -180 -238 -180c-61 0 -119 8 -176 24v131c45 -23 92 -32 155 -32c79 0 119 33 119 94c0 40 -28 97 -88 178z" />
    <glyph glyph-name="circumflex" unicode="&#x2c6;" 
d="M193 1262l245 376h148l245 -376h-139l-180 245l-180 -245h-139z" />
    <glyph glyph-name="dieresis" unicode="&#xa8;" 
d="M215 1350v202h203v-202h-203zM606 1350v202h203v-202h-203z" />
    <glyph glyph-name="dotaccent" unicode="&#x2d9;" 
d="M410 1348v204h204v-204h-204z" />
    <glyph glyph-name="grave" unicode="`" 
d="M170 1638h197l282 -374h-153z" />
    <glyph glyph-name="hungarumlaut" unicode="&#x2dd;" 
d="M240 1262l190 376h170l-223 -376h-137zM559 1262l205 376h178l-248 -376h-135z" />
    <glyph glyph-name="macron" unicode="&#xaf;" 
d="M213 1378v148h598v-148h-598z" />
    <glyph glyph-name="ogonek" unicode="&#x2db;" 
d="M440 0h119c-60 -81 -88 -139 -88 -180c0 -61 37 -92 109 -92c43 0 84 10 125 30v-133c-51 -13 -96 -20 -136 -20c-163 0 -237 56 -237 180c0 64 35 132 108 215z" />
    <glyph glyph-name="ring" unicode="&#x2da;" 
d="M786 1524c0 -153 -121 -275 -274 -275s-274 122 -274 275s121 274 274 274s274 -121 274 -274zM664 1524c0 84 -67 151 -152 151c-87 0 -152 -66 -152 -151c0 -87 65 -152 152 -152c85 0 152 67 152 152z" />
    <glyph glyph-name="tilde" unicode="&#x2dc;" 
d="M508 1370l-57 55c-29 27 -51 39 -68 39c-25 0 -44 -12 -56 -36c-12 -25 -19 -64 -20 -119h-125c3 180 74 282 195 282c51 0 90 -17 139 -61l57 -55c29 -27 51 -39 68 -39c25 0 44 12 56 37c12 24 19 63 20 118h125c-3 -180 -74 -282 -195 -282c-51 0 -90 17 -139 61z" />
    <glyph glyph-name="uni0000" horiz-adv-x="0" 
 />
    <glyph glyph-name="uni0000" horiz-adv-x="0" 
 />
    <glyph glyph-name="c6459" 
d="M215 1294v203h203v-203h-203zM606 1294v203h203v-203h-203z" />
    <glyph glyph-name="c6460" 
d="M371 1262l196 264h185l-228 -264h-153z" />
    <glyph glyph-name="c6461" 
d="M508 1337l-57 33c-33 19 -52 25 -68 25c-48 0 -76 -35 -76 -95v-6h-125c0 135 74 219 189 219c48 0 81 -7 145 -43l57 -30c31 -17 52 -25 72 -25c43 0 72 37 72 92v6h125c-3 -133 -77 -219 -189 -219c-45 0 -76 7 -145 43z" />
    <glyph glyph-name="c6462" 
d="M268 1526h187l196 -264h-153z" />
    <glyph glyph-name="c6463" 
d="M207 1262l211 266h188l211 -266h-139l-166 178l-166 -178h-139z" />
    <glyph glyph-name="c6466" 
d="M606 1262h-188l-211 266h139l166 -178l166 178h139z" />
    <glyph glyph-name="c6467" horiz-adv-x="821" 
d="M63 975l392 528h166v-540h135v-109h-135v-186h-144v186h-414v121zM477 963v419l-309 -419h309z" />
    <glyph glyph-name="c6468" 
d="M199 1528h118c17 -72 84 -111 195 -111c109 0 174 36 195 111h118c-13 -159 -122 -242 -313 -242c-192 0 -300 82 -313 242z" />
    <glyph glyph-name="c6469" 
d="M410 1294v205h204v-205h-204z" />
    </font>
</defs>
</svg>
